  0
SECTION
  2
HEADER
  9
$ACADVER
  1
AC1015
  9
$ACADMAINTVER
 70
     6
  9
$DWGCODEPAGE
  3
ANSI_1250
  9
$INSBASE
 10
0.0
 20
0.0
 30
0.0
  9
$EXTMIN
 10
0.0
 20
0.0
 30
0.0
  9
$EXTMAX
 10
29700.0
 20
21000.0
 30
0.0
  9
$LIMMIN
 10
0.0
 20
0.0
  9
$LIMMAX
 10
29700.0
 20
21000.0
  9
$ORTHOMODE
 70
     0
  9
$REGENMODE
 70
     1
  9
$FILLMODE
 70
     1
  9
$QTEXTMODE
 70
     0
  9
$MIRRTEXT
 70
     1
  9
$LTSCALE
 40
1.0
  9
$ATTMODE
 70
     1
  9
$TEXTSIZE
 40
175.0
  9
$TRACEWID
 40
1.0
  9
$TEXTSTYLE
  7
Standard
  9
$CLAYER
  8
0
  9
$CELTYPE
  6
ByLayer
  9
$CECOLOR
 62
   256
  9
$CELTSCALE
 40
1.0
  9
$DISPSILH
 70
     0
  9
$DIMSCALE
 40
1.0
  9
$DIMASZ
 40
165.1
  9
$DIMEXO
 40
50.0
  9
$DIMDLI
 40
3.75
  9
$DIMRND
 40
0.0
  9
$DIMDLE
 40
0.0
  9
$DIMEXE
 40
50.0
  9
$DIMTP
 40
0.0
  9
$DIMTM
 40
0.0
  9
$DIMTXT
 40
175.0
  9
$DIMCEN
 40
2.5
  9
$DIMTSZ
 40
0.0
  9
$DIMTOL
 70
     0
  9
$DIMLIM
 70
     0
  9
$DIMTIH
 70
     1
  9
$DIMTOH
 70
     1
  9
$DIMSE1
 70
     0
  9
$DIMSE2
 70
     0
  9
$DIMTAD
 70
     1
  9
$DIMZIN
 70
     1
  9
$DIMBLK
  1

  9
$DIMASO
 70
     1
  9
$DIMSHO
 70
     1
  9
$DIMPOST
  1

  9
$DIMAPOST
  1

  9
$DIMALT
 70
     0
  9
$DIMALTD
 70
     3
  9
$DIMALTF
 40
0.0393700787
  9
$DIMLFAC
 40
1.0
  9
$DIMTOFL
 70
     1
  9
$DIMTVP
 40
0.0
  9
$DIMTIX
 70
     0
  9
$DIMSOXD
 70
     0
  9
$DIMSAH
 70
     0
  9
$DIMBLK1
  1

  9
$DIMBLK2
  1

  9
$DIMSTYLE
  2
ISO-25
  9
$DIMCLRD
 70
     0
  9
$DIMCLRE
 70
     0
  9
$DIMCLRT
 70
     0
  9
$DIMTFAC
 40
1.0
  9
$DIMGAP
 40
76.2
  9
$DIMJUST
 70
     0
  9
$DIMSD1
 70
     0
  9
$DIMSD2
 70
     0
  9
$DIMTOLJ
 70
     0
  9
$DIMTZIN
 70
     1
  9
$DIMALTZ
 70
     0
  9
$DIMALTTZ
 70
     0
  9
$DIMUPT
 70
     0
  9
$DIMDEC
 70
     2
  9
$DIMTDEC
 70
     2
  9
$DIMALTU
 70
     2
  9
$DIMALTTD
 70
     3
  9
$DIMTXSTY
  7
Standard
  9
$DIMAUNIT
 70
     0
  9
$DIMADEC
 70
     2
  9
$DIMALTRND
 40
0.0
  9
$DIMAZIN
 70
     0
  9
$DIMDSEP
 70
    44
  9
$DIMATFIT
 70
     3
  9
$DIMFRAC
 70
     0
  9
$DIMLDRBLK
  1

  9
$DIMLUNIT
 70
     2
  9
$DIMLWD
 70
    -2
  9
$DIMLWE
 70
    -2
  9
$DIMTMOVE
 70
     0
  9
$LUNITS
 70
     2
  9
$LUPREC
 70
     2
  9
$SKETCHINC
 40
1.0
  9
$FILLETRAD
 40
10.0
  9
$AUNITS
 70
     0
  9
$AUPREC
 70
     2
  9
$MENU
  1
.
  9
$ELEVATION
 40
0.0
  9
$PELEVATION
 40
0.0
  9
$THICKNESS
 40
0.0
  9
$LIMCHECK
 70
     0
  9
$CHAMFERA
 40
0.0
  9
$CHAMFERB
 40
0.0
  9
$CHAMFERC
 40
0.0
  9
$CHAMFERD
 40
0.0
  9
$SKPOLY
 70
     0
  9
$TDCREATE
 40
2460695.802424317
  9
$TDUCREATE
 40
2460695.76075765
  9
$TDUPDATE
 40
2460695.802428299
  9
$TDUUPDATE
 40
2460695.760761632
  9
$TDINDWG
 40
0.0000000116
  9
$TDUSRTIMER
 40
0.0000000116
  9
$USRTIMER
 70
     1
  9
$ANGBASE
 50
0.0
  9
$ANGDIR
 70
     0
  9
$PDMODE
 70
     0
  9
$PDSIZE
 40
-1.0
  9
$PLINEWID
 40
0.0
  9
$SPLFRAME
 70
     0
  9
$SPLINETYPE
 70
     6
  9
$SPLINESEGS
 70
     8
  9
$HANDSEED
  5
53C
  9
$SURFTAB1
 70
     6
  9
$SURFTAB2
 70
     6
  9
$SURFTYPE
 70
     6
  9
$SURFU
 70
     6
  9
$SURFV
 70
     6
  9
$UCSBASE
  2

  9
$UCSNAME
  2

  9
$UCSORG
 10
0.0
 20
0.0
 30
0.0
  9
$UCSXDIR
 10
1.0
 20
0.0
 30
0.0
  9
$UCSYDIR
 10
0.0
 20
1.0
 30
0.0
  9
$UCSORTHOREF
  2

  9
$UCSORTHOVIEW
 70
     0
  9
$UCSORGTOP
 10
0.0
 20
0.0
 30
0.0
  9
$UCSORGBOTTOM
 10
0.0
 20
0.0
 30
0.0
  9
$UCSORGLEFT
 10
0.0
 20
0.0
 30
0.0
  9
$UCSORGRIGHT
 10
0.0
 20
0.0
 30
0.0
  9
$UCSORGFRONT
 10
0.0
 20
0.0
 30
0.0
  9
$UCSORGBACK
 10
0.0
 20
0.0
 30
0.0
  9
$PUCSBASE
  2

  9
$PUCSNAME
  2

  9
$PUCSORG
 10
0.0
 20
0.0
 30
0.0
  9
$PUCSXDIR
 10
1.0
 20
0.0
 30
0.0
  9
$PUCSYDIR
 10
0.0
 20
1.0
 30
0.0
  9
$PUCSORTHOREF
  2

  9
$PUCSORTHOVIEW
 70
     0
  9
$PUCSORGTOP
 10
0.0
 20
0.0
 30
0.0
  9
$PUCSORGBOTTOM
 10
0.0
 20
0.0
 30
0.0
  9
$PUCSORGLEFT
 10
0.0
 20
0.0
 30
0.0
  9
$PUCSORGRIGHT
 10
0.0
 20
0.0
 30
0.0
  9
$PUCSORGFRONT
 10
0.0
 20
0.0
 30
0.0
  9
$PUCSORGBACK
 10
0.0
 20
0.0
 30
0.0
  9
$USERI1
 70
     0
  9
$USERI2
 70
     0
  9
$USERI3
 70
     0
  9
$USERI4
 70
     0
  9
$USERI5
 70
     0
  9
$USERR1
 40
0.0
  9
$USERR2
 40
0.0
  9
$USERR3
 40
0.0
  9
$USERR4
 40
0.0
  9
$USERR5
 40
0.0
  9
$WORLDVIEW
 70
     1
  9
$SHADEDGE
 70
     3
  9
$SHADEDIF
 70
    70
  9
$TILEMODE
 70
     1
  9
$MAXACTVP
 70
    64
  9
$PINSBASE
 10
0.0
 20
0.0
 30
0.0
  9
$PLIMCHECK
 70
     0
  9
$PEXTMIN
 10
0.0
 20
0.0
 30
0.0
  9
$PEXTMAX
 10
29700.0
 20
21000.0
 30
0.0
  9
$PLIMMIN
 10
0.0
 20
0.0
  9
$PLIMMAX
 10
29700.0
 20
21000.0
  9
$UNITMODE
 70
     0
  9
$VISRETAIN
 70
     1
  9
$PLINEGEN
 70
     0
  9
$PSLTSCALE
 70
     1
  9
$TREEDEPTH
 70
  3020
  9
$CMLSTYLE
  2
Standard
  9
$CMLJUST
 70
     0
  9
$CMLSCALE
 40
20.0
  9
$PROXYGRAPHICS
 70
     1
  9
$MEASUREMENT
 70
     1
  9
$CELWEIGHT
370
    -1
  9
$ENDCAPS
280
     0
  9
$JOINSTYLE
280
     0
  9
$LWDISPLAY
290
     1
  9
$INSUNITS
 70
     4
  9
$HYPERLINKBASE
  1

  9
$STYLESHEET
  1

  9
$XEDIT
290
     1
  9
$CEPSNTYPE
380
     0
  9
$PSTYLEMODE
290
     1
  9
$FINGERPRINTGUID
  2
{05584b8a-e1a0-4d15-8a48-8c834223ae1f}
  9
$VERSIONGUID
  2
{FAEB1C32-E019-11D5-929B-00C0DF256EC4}
  9
$EXTNAMES
290
     1
  9
$PSVPSCALE
 40
0.0
  9
$OLESTARTUP
290
     0
  0
ENDSEC
  0
SECTION
  2
CLASSES
  0
CLASS
  1
ACDBDICTIONARYWDFLT
  2
AcDbDictionaryWithDefault
  3
ObjectDBX Classes
 90
        0
280
     0
281
     0
  0
CLASS
  1
VISUALSTYLE
  2
AcDbVisualStyle
  3
ObjectDBX Classes
 90
     4095
280
     0
281
     0
  0
CLASS
  1
MATERIAL
  2
AcDbMaterial
  3
ObjectDBX Classes
 90
     1153
280
     0
281
     0
  0
CLASS
  1
SCALE
  2
AcDbScale
  3
ObjectDBX Classes
 90
     1153
280
     0
281
     0
  0
CLASS
  1
TABLESTYLE
  2
AcDbTableStyle
  3
ObjectDBX Classes
 90
     4095
280
     0
281
     0
  0
CLASS
  1
MLEADERSTYLE
  2
AcDbMLeaderStyle
  3
ACDB_MLEADERSTYLE_CLASS
 90
     4095
280
     0
281
     0
  0
CLASS
  1
SUN
  2
AcDbSun
  3
SCENEOE
 90
     1153
280
     0
281
     0
  0
CLASS
  1
ACDBPLACEHOLDER
  2
AcDbPlaceHolder
  3
ObjectDBX Classes
 90
        0
280
     0
281
     0
  0
CLASS
  1
LAYOUT
  2
AcDbLayout
  3
ObjectDBX Classes
 90
        0
280
     0
281
     0
  0
ENDSEC
  0
SECTION
  2
TABLES
  0
TABLE
  2
VPORT
  5
8
330
0
100
AcDbSymbolTable
 70
     1
  0
VPORT
  5
29
330
8
100
AcDbSymbolTableRecord
100
AcDbViewportTableRecord
  2
*Active
 70
     0
 10
0.0
 20
0.0
 11
1.0
 21
1.0
 12
14850.0
 22
10500.0
 13
0.0
 23
0.0
 14
10.0
 24
10.0
 15
10.0
 25
10.0
 16
0.0
 26
0.0
 36
1.0
 17
0.0
 27
0.0
 37
0.0
 40
21000.0
 41
1.4142857143
 42
50.0
 43
0.0
 44
0.0
 50
0.0
 51
0.0
 71
     0
 72
  2000
 73
     1
 74
     3
 75
     0
 76
     0
 77
     0
 78
     0
281
     0
 65
     1
110
0.0
120
0.0
130
0.0
111
1.0
121
0.0
131
0.0
112
0.0
122
1.0
132
0.0
 79
     0
146
0.0
  0
ENDTAB
  0
TABLE
  2
LTYPE
  5
5
330
0
100
AcDbSymbolTable
 70
     6
  0
LTYPE
  5
14
330
5
100
AcDbSymbolTableRecord
100
AcDbLinetypeTableRecord
  2
ByBlock
 70
     0
  3

 72
    65
 73
     0
 40
0.0
  0
LTYPE
  5
15
330
5
100
AcDbSymbolTableRecord
100
AcDbLinetypeTableRecord
  2
ByLayer
 70
     0
  3

 72
    65
 73
     0
 40
0.0
  0
LTYPE
  5
16
330
5
100
AcDbSymbolTableRecord
100
AcDbLinetypeTableRecord
  2
Continuous
 70
     0
  3
Solid line
 72
    65
 73
     0
 40
0.0
  0
LTYPE
  5
6E
330
5
100
AcDbSymbolTableRecord
100
AcDbLinetypeTableRecord
  2
HIDDEN
 70
     0
  3
Hidden __ __ __ __ __ __ __ __ __ __ __ __ __ __
 72
    65
 73
     2
 40
1.905
 49
1.27
 74
     0
 49
-0.635
 74
     0
  0
LTYPE
  5
6F
330
5
100
AcDbSymbolTableRecord
100
AcDbLinetypeTableRecord
  2
PHANTOM
 70
     0
  3
Phantom ______  __  __  ______  __  __  ______
 72
    65
 73
     6
 40
12.7
 49
6.35
 74
     0
 49
-1.27
 74
     0
 49
1.27
 74
     0
 49
-1.27
 74
     0
 49
1.27
 74
     0
 49
-1.27
 74
     0
  0
LTYPE
  5
70
330
5
100
AcDbSymbolTableRecord
100
AcDbLinetypeTableRecord
  2
CENTER
 70
     0
  3
Center ____ _ ____ _ ____ _ ____ _ ____ _ ____
 72
    65
 73
     4
 40
10.16
 49
6.35
 74
     0
 49
-1.27
 74
     0
 49
1.27
 74
     0
 49
-1.27
 74
     0
  0
LTYPE
  5
71
330
5
100
AcDbSymbolTableRecord
100
AcDbLinetypeTableRecord
  2
CENTERX2
 70
     0
  3
Center (2x) ________  __  ________  __  _____
 72
    65
 73
     4
 40
20.32
 49
12.7
 74
     0
 49
-2.54
 74
     0
 49
2.54
 74
     0
 49
-2.54
 74
     0
  0
LTYPE
  5
72
330
5
100
AcDbSymbolTableRecord
100
AcDbLinetypeTableRecord
  2
DOT2
 70
     0
  3
Dot (.5x) ........................................
 72
    65
 73
     2
 40
0.635
 49
0.0
 74
     0
 49
-0.635
 74
     0
  0
ENDTAB
  0
TABLE
  2
LAYER
  5
2
330
0
100
AcDbSymbolTable
 70
     2
  0
LAYER
  5
10
330
2
100
AcDbSymbolTableRecord
100
AcDbLayerTableRecord
  2
0
 70
     0
 62
     7
  6
Continuous
370
    -3
390
F
  0
LAYER
  5
73
330
2
100
AcDbSymbolTableRecord
100
AcDbLayerTableRecord
  2
FORMAT
 70
     0
 62
     7
  6
Continuous
370
    -3
390
F
  0
ENDTAB
  0
TABLE
  2
STYLE
  5
3
330
0
100
AcDbSymbolTable
 70
     2
  0
STYLE
  5
11
330
3
100
AcDbSymbolTableRecord
100
AcDbTextStyleTableRecord
  2
Standard
 70
     0
 40
0.0
 41
1.0
 50
0.0
 71
     0
 42
175.0
  3
txt
  4

  0
STYLE
  5
1D6
330
3
100
AcDbSymbolTableRecord
100
AcDbTextStyleTableRecord
  2
SLDTEXTSTYLE0
 70
     0
 40
0.0
 41
0.75
 50
0.0
 71
     0
 42
175.0
  3
TXT
  4

  0
ENDTAB
  0
TABLE
  2
VIEW
  5
6
330
0
100
AcDbSymbolTable
 70
     0
  0
ENDTAB
  0
TABLE
  2
UCS
  5
7
330
0
100
AcDbSymbolTable
 70
     0
  0
ENDTAB
  0
TABLE
  2
APPID
  5
9
330
0
100
AcDbSymbolTable
 70
     1
  0
APPID
  5
12
330
9
100
AcDbSymbolTableRecord
100
AcDbRegAppTableRecord
  2
ACAD
 70
     0
  0
ENDTAB
  0
TABLE
  2
DIMSTYLE
  5
A
330
0
100
AcDbSymbolTable
 70
     7
100
AcDbDimStyleTable
  0
DIMSTYLE
105
27
330
A
100
AcDbSymbolTableRecord
100
AcDbDimStyleTableRecord
  2
ISO-25
 70
     0
 41
2.5
 42
0.625
 43
3.75
 44
1.25
 73
     0
 74
     0
 77
     1
 78
     8
140
2.5
141
2.5
143
0.0393700787
147
0.625
171
     3
172
     1
178
     0
271
     2
272
     2
274
     3
278
    44
283
     0
284
     8
340
11
  0
DIMSTYLE
105
1D7
102
{ACAD_REACTORS
330
1D5
102
}
330
A
100
AcDbSymbolTableRecord
100
AcDbDimStyleTableRecord
  2
SLDDIMSTYLE0
 70
     0
 41
165.1
 44
0.0
 45
0.000000001
 73
     0
 74
     0
 77
     1
 78
    12
 79
     3
140
175.0
147
43.75
172
     1
173
     1
178
     0
271
     2
272
     2
276
     2
284
    12
289
     0
340
1D6
  0
DIMSTYLE
105
1E4
102
{ACAD_REACTORS
330
1E3
330
374
330
388
330
532
102
}
330
A
100
AcDbSymbolTableRecord
100
AcDbDimStyleTableRecord
  2
SLDDIMSTYLE1
 70
     0
 41
165.1
 44
0.0
 45
0.000000001
 73
     0
 74
     0
 77
     1
 78
    12
 79
     3
140
175.0
147
43.75
173
     1
178
     0
271
     2
272
     2
276
     2
284
    12
340
1D6
  0
DIMSTYLE
105
353
102
{ACAD_REACTORS
330
352
330
3A6
102
}
330
A
100
AcDbSymbolTableRecord
100
AcDbDimStyleTableRecord
  2
SLDDIMSTYLE2
 70
     0
 41
165.1
 44
0.0
 45
0.000000001
 73
     0
 74
     0
 77
     1
 78
    12
 79
     3
140
175.0
147
43.75
172
     1
173
     1
178
     0
271
     0
272
     0
276
     2
284
    12
289
     0
340
1D6
  0
DIMSTYLE
105
360
102
{ACAD_REACTORS
330
35F
330
37E
330
39D
102
}
330
A
100
AcDbSymbolTableRecord
100
AcDbDimStyleTableRecord
  2
SLDDIMSTYLE3
 70
     0
 41
165.1
 44
0.0
 45
0.000000001
 73
     0
 74
     0
 77
     1
 78
    12
 79
     3
140
175.0
147
43.75
173
     1
178
     0
271
     0
272
     0
276
     2
284
    12
340
1D6
  0
DIMSTYLE
105
36A
102
{ACAD_REACTORS
330
369
102
}
330
A
100
AcDbSymbolTableRecord
100
AcDbDimStyleTableRecord
  2
SLDDIMSTYLE4
 70
     0
 41
165.1
 44
0.0
 73
     0
 74
     0
 77
     1
 78
    12
 79
     3
140
175.0
144
50.0
147
43.75
173
     1
178
     0
179
     2
272
     2
276
     2
284
    12
340
1D6
  0
DIMSTYLE
105
393
102
{ACAD_REACTORS
330
392
102
}
330
A
100
AcDbSymbolTableRecord
100
AcDbDimStyleTableRecord
  2
SLDDIMSTYLE5
 70
     0
 41
165.1
 44
0.0
 45
0.000000001
 73
     0
 74
     0
 77
     1
 78
    12
 79
     3
140
175.0
147
43.75
173
     1
178
     0
271
     0
272
     2
276
     2
284
    12
340
1D6
  0
ENDTAB
  0
TABLE
  2
BLOCK_RECORD
  5
1
330
0
100
AcDbSymbolTable
 70
    12
  0
BLOCK_RECORD
  5
1F
330
1
100
AcDbSymbolTableRecord
100
AcDbBlockTableRecord
  2
*Model_Space
340
22
  0
BLOCK_RECORD
  5
1B
330
1
100
AcDbSymbolTableRecord
100
AcDbBlockTableRecord
  2
*Paper_Space
340
1E
  0
BLOCK_RECORD
  5
1D8
330
1
100
AcDbSymbolTableRecord
100
AcDbBlockTableRecord
  2
_D
340
0
  0
BLOCK_RECORD
  5
1E5
330
1
100
AcDbSymbolTableRecord
100
AcDbBlockTableRecord
  2
_D_1
340
0
  0
BLOCK_RECORD
  5
354
330
1
100
AcDbSymbolTableRecord
100
AcDbBlockTableRecord
  2
_D_2
340
0
  0
BLOCK_RECORD
  5
361
330
1
100
AcDbSymbolTableRecord
100
AcDbBlockTableRecord
  2
_D_3
340
0
  0
BLOCK_RECORD
  5
36B
330
1
100
AcDbSymbolTableRecord
100
AcDbBlockTableRecord
  2
_D_4
340
0
  0
BLOCK_RECORD
  5
375
330
1
100
AcDbSymbolTableRecord
100
AcDbBlockTableRecord
  2
_D_5
340
0
  0
BLOCK_RECORD
  5
37F
330
1
100
AcDbSymbolTableRecord
100
AcDbBlockTableRecord
  2
_D_6
340
0
  0
BLOCK_RECORD
  5
389
330
1
100
AcDbSymbolTableRecord
100
AcDbBlockTableRecord
  2
_D_7
340
0
  0
BLOCK_RECORD
  5
394
330
1
100
AcDbSymbolTableRecord
100
AcDbBlockTableRecord
  2
_D_8
340
0
  0
BLOCK_RECORD
  5
39E
330
1
100
AcDbSymbolTableRecord
100
AcDbBlockTableRecord
  2
_D_9
340
0
  0
BLOCK_RECORD
  5
3A7
330
1
100
AcDbSymbolTableRecord
100
AcDbBlockTableRecord
  2
_D_10
340
0
  0
BLOCK_RECORD
  5
533
330
1
100
AcDbSymbolTableRecord
100
AcDbBlockTableRecord
  2
_D_11
340
0
  0
ENDTAB
  0
ENDSEC
  0
SECTION
  2
BLOCKS
  0
BLOCK
  5
20
330
1F
100
AcDbEntity
  8
0
100
AcDbBlockBegin
  2
*Model_Space
 70
     0
 10
0.0
 20
0.0
 30
0.0
  3
*Model_Space
  1

  0
ENDBLK
  5
21
330
1F
100
AcDbEntity
  8
0
100
AcDbBlockEnd
  0
BLOCK
  5
1C
330
1B
100
AcDbEntity
 67
     1
  8
0
100
AcDbBlockBegin
  2
*Paper_Space
 70
     0
 10
0.0
 20
0.0
 30
0.0
  3
*Paper_Space
  1

  0
ENDBLK
  5
1D
330
1B
100
AcDbEntity
 67
     1
  8
0
100
AcDbBlockEnd
  0
BLOCK
  5
1D9
330
1D8
100
AcDbEntity
  8
0
100
AcDbBlockBegin
  2
_D
 70
     0
 10
0.0
 20
0.0
 30
0.0
  3
_D
  1

  0
SOLID
  5
1DB
330
1D8
100
AcDbEntity
  8
0
  6
Continuous
 62
     7
 48
50.0
370
    18
100
AcDbTrace
 10
8043.9880239434
 20
15105.8706825803
 30
0.0
 11
7878.8880239434
 21
15131.2706825803
 31
0.0
 12
7878.8880239434
 22
15080.4706825803
 32
0.0
 13
7878.8880239434
 23
15080.4706825803
 33
0.0
  0
SOLID
  5
1DC
330
1D8
100
AcDbEntity
  8
0
  6
Continuous
 62
     7
 48
50.0
370
    18
100
AcDbTrace
 10
9183.9880239434
 20
15105.8706825801
 30
0.0
 11
9349.0880239434
 21
15080.4706825801
 31
0.0
 12
9349.0880239434
 22
15131.2706825801
 32
0.0
 13
9349.0880239434
 23
15131.2706825801
 33
0.0
  0
LINE
  5
1DD
330
1D8
100
AcDbEntity
  8
0
  6
Continuous
 62
     7
 48
50.0
370
     0
100
AcDbLine
 10
8043.9880239433
 20
14851.5646738589
 30
0.0
 11
8043.9880239434
 21
15155.8706825803
 31
0.0
  0
LINE
  5
1DE
330
1D8
100
AcDbEntity
  8
0
  6
Continuous
 62
     7
 48
50.0
370
     0
100
AcDbLine
 10
9183.9880239433
 20
14851.5646738589
 30
0.0
 11
9183.9880239434
 21
15155.8706825801
 31
0.0
  0
LINE
  5
1DF
330
1D8
100
AcDbEntity
  8
0
  6
Continuous
 62
     7
 48
50.0
370
     0
100
AcDbLine
 10
8043.9880239434
 20
15105.8706825803
 30
0.0
 11
7726.4880239434
 21
15105.8706825804
 31
0.0
  0
LINE
  5
1E0
330
1D8
100
AcDbEntity
  8
0
  6
Continuous
 62
     7
 48
50.0
370
     0
100
AcDbLine
 10
8043.9880239434
 20
15105.8706825803
 30
0.0
 11
9183.9880239434
 21
15105.8706825801
 31
0.0
  0
LINE
  5
1E1
330
1D8
100
AcDbEntity
  8
0
  6
Continuous
 62
     7
 48
50.0
370
     0
100
AcDbLine
 10
9183.9880239434
 20
15105.8706825801
 30
0.0
 11
9501.4880239434
 21
15105.87068258
 31
0.0
  0
MTEXT
  5
1E2
330
1D8
100
AcDbEntity
  8
0
  6
Continuous
 62
     7
 48
50.0
370
    18
100
AcDbMText
 10
8297.3991732363
 20
15331.4575283091
 30
0.0
 40
175.0
 41
0.0
 71
     1
 72
     1
  1
1140,00
  7
SLDTEXTSTYLE0
 73
     1
 44
1.0
  0
ENDBLK
  5
1DA
330
1D8
100
AcDbEntity
  8
0
100
AcDbBlockEnd
  0
BLOCK
  5
1E6
330
1E5
100
AcDbEntity
  8
0
100
AcDbBlockBegin
  2
_D_1
 70
     0
 10
0.0
 20
0.0
 30
0.0
  3
_D_1
  1

  0
SOLID
  5
1E8
330
1E5
100
AcDbEntity
  8
0
  6
Continuous
 62
     7
 48
50.0
370
    18
100
AcDbTrace
 10
8318.4880239522
 20
10564.8401121951
 30
0.0
 11
8483.5880239522
 21
10539.4401121951
 31
0.0
 12
8483.5880239522
 22
10590.2401121951
 32
0.0
 13
8483.5880239522
 23
10590.2401121951
 33
0.0
  0
SOLID
  5
1E9
330
1E5
100
AcDbEntity
  8
0
  6
Continuous
 62
     7
 48
50.0
370
    18
100
AcDbTrace
 10
10188.4880239522
 20
10564.8401121951
 30
0.0
 11
10023.3880239522
 21
10590.2401121951
 31
0.0
 12
10023.3880239522
 22
10539.4401121951
 32
0.0
 13
10023.3880239522
 23
10539.4401121951
 33
0.0
  0
LINE
  5
1EA
330
1E5
100
AcDbEntity
  8
0
  6
Continuous
 62
     7
 48
50.0
370
     0
100
AcDbLine
 10
8318.4880239522
 20
12728.6729566342
 30
0.0
 11
8318.4880239522
 21
10514.8401121951
 31
0.0
  0
LINE
  5
1EB
330
1E5
100
AcDbEntity
  8
0
  6
Continuous
 62
     7
 48
50.0
370
     0
100
AcDbLine
 10
10188.4880239522
 20
12728.6729566342
 30
0.0
 11
10188.4880239522
 21
10514.8401121951
 31
0.0
  0
LINE
  5
1EC
330
1E5
100
AcDbEntity
  8
0
  6
Continuous
 62
     7
 48
50.0
370
     0
100
AcDbLine
 10
8318.4880239522
 20
10564.8401121951
 30
0.0
 11
10188.4880239522
 21
10564.8401121951
 31
0.0
  0
MTEXT
  5
1ED
330
1E5
100
AcDbEntity
  8
0
  6
Continuous
 62
     7
 48
50.0
370
    18
100
AcDbMText
 10
8768.7828817614
 20
10790.426957924
 30
0.0
 40
175.0
 41
0.0
 71
     1
 72
     1
  1
1870,00
  7
SLDTEXTSTYLE0
 73
     1
 44
1.0
  0
ENDBLK
  5
1E7
330
1E5
100
AcDbEntity
  8
0
100
AcDbBlockEnd
  0
BLOCK
  5
355
330
354
100
AcDbEntity
  8
0
100
AcDbBlockBegin
  2
_D_2
 70
     0
 10
0.0
 20
0.0
 30
0.0
  3
_D_2
  1

  0
SOLID
  5
357
330
354
100
AcDbEntity
  8
0
  6
Continuous
 62
     7
 48
50.0
370
    18
100
AcDbTrace
 10
20396.3319140657
 20
12830.1433418668
 30
0.0
 11
20421.7319140657
 21
12995.2433418668
 31
0.0
 12
20370.9319140657
 22
12995.2433418668
 32
0.0
 13
20370.9319140657
 23
12995.2433418668
 33
0.0
  0
SOLID
  5
358
330
354
100
AcDbEntity
  8
0
  6
Continuous
 62
     7
 48
50.0
370
    18
100
AcDbTrace
 10
20396.3319140657
 20
12148.6729566341
 30
0.0
 11
20370.9319140657
 21
11983.5729566341
 31
0.0
 12
20421.7319140657
 22
11983.5729566341
 32
0.0
 13
20421.7319140657
 23
11983.5729566341
 33
0.0
  0
LINE
  5
359
330
354
100
AcDbEntity
  8
0
  6
Continuous
 62
     7
 48
50.0
370
     0
100
AcDbLine
 10
19929.427183596
 20
12830.1433418668
 30
0.0
 11
20446.3319140657
 21
12830.1433418668
 31
0.0
  0
LINE
  5
35A
330
354
100
AcDbEntity
  8
0
  6
Continuous
 62
     7
 48
50.0
370
     0
100
AcDbLine
 10
16571.1003678862
 20
12148.6729566341
 30
0.0
 11
20446.3319140657
 21
12148.6729566341
 31
0.0
  0
LINE
  5
35B
330
354
100
AcDbEntity
  8
0
  6
Continuous
 62
     7
 48
50.0
370
     0
100
AcDbLine
 10
20396.3319140657
 20
12830.1433418668
 30
0.0
 11
20396.3319140657
 21
13147.6433418668
 31
0.0
  0
LINE
  5
35C
330
354
100
AcDbEntity
  8
0
  6
Continuous
 62
     7
 48
50.0
370
     0
100
AcDbLine
 10
20396.3319140657
 20
12830.1433418668
 30
0.0
 11
20396.3319140657
 21
12148.6729566341
 31
0.0
  0
LINE
  5
35D
330
354
100
AcDbEntity
  8
0
  6
Continuous
 62
     7
 48
50.0
370
     0
100
AcDbLine
 10
20396.3319140657
 20
12148.6729566341
 30
0.0
 11
20396.3319140657
 21
11831.1729566341
 31
0.0
  0
MTEXT
  5
35E
330
354
100
AcDbEntity
  8
0
  6
Continuous
 62
     7
 48
50.0
370
    18
100
AcDbMText
 10
20170.7450683367
 20
12291.1391283328
 30
0.0
 40
175.0
 41
0.0
 71
     1
 72
     1
  1
681
  7
SLDTEXTSTYLE0
 11
-7.044195017643634E-15
 21
1.0
 31
0.0
 73
     1
 44
1.0
  0
ENDBLK
  5
356
330
354
100
AcDbEntity
  8
0
100
AcDbBlockEnd
  0
BLOCK
  5
362
330
361
100
AcDbEntity
  8
0
100
AcDbBlockBegin
  2
_D_3
 70
     0
 10
0.0
 20
0.0
 30
0.0
  3
_D_3
  1

  0
SOLID
  5
364
330
361
100
AcDbEntity
  8
0
  6
Continuous
 62
     7
 48
50.0
370
    18
100
AcDbTrace
 10
15229.4438267552
 20
14765.3123623775
 30
0.0
 11
15204.0438267552
 21
14600.2123623775
 31
0.0
 12
15254.8438267552
 22
14600.2123623775
 32
0.0
 13
15254.8438267552
 23
14600.2123623775
 33
0.0
  0
SOLID
  5
365
330
361
100
AcDbEntity
  8
0
  6
Continuous
 62
     7
 48
50.0
370
    18
100
AcDbTrace
 10
15229.4438267552
 20
12148.6729566341
 30
0.0
 11
15254.8438267552
 21
12313.7729566341
 31
0.0
 12
15204.0438267552
 22
12313.7729566341
 32
0.0
 13
15204.0438267552
 23
12313.7729566341
 33
0.0
  0
LINE
  5
366
330
361
100
AcDbEntity
  8
0
  6
Continuous
 62
     7
 48
50.0
370
     0
100
AcDbLine
 10
15679.4438267552
 20
14765.3123623775
 30
0.0
 11
15179.4438267552
 21
14765.3123623775
 31
0.0
  0
LINE
  5
367
330
361
100
AcDbEntity
  8
0
  6
Continuous
 62
     7
 48
50.0
370
     0
100
AcDbLine
 10
15229.4438267552
 20
14765.3123623775
 30
0.0
 11
15229.4438267552
 21
12148.6729566341
 31
0.0
  0
MTEXT
  5
368
330
361
100
AcDbEntity
  8
0
  6
Continuous
 62
     7
 48
50.0
370
    18
100
AcDbMText
 10
15003.8569810262
 20
12812.551507751
 30
0.0
 40
175.0
 41
0.0
 71
     1
 72
     1
  1
2617
  7
SLDTEXTSTYLE0
 11
-7.044195017643634E-15
 21
1.0
 31
0.0
 73
     1
 44
1.0
  0
ENDBLK
  5
363
330
361
100
AcDbEntity
  8
0
100
AcDbBlockEnd
  0
BLOCK
  5
36C
330
36B
100
AcDbEntity
  8
0
100
AcDbBlockBegin
  2
_D_4
 70
     0
 10
0.0
 20
0.0
 30
0.0
  3
_D_4
  1

  0
ARC
  5
36E
330
36B
100
AcDbEntity
  8
0
  6
Continuous
 62
     7
 48
50.0
370
    18
100
AcDbCircle
 10
20842.7597075961
 20
12148.6729566341
 30
0.0
 40
2778.151154551471
100
AcDbArc
 50
155.0
 51
180.0
  0
SOLID
  5
36F
330
36B
100
AcDbEntity
  8
0
  6
Continuous
 62
     7
 48
50.0
370
    18
100
AcDbTrace
 10
18324.8996826613
 20
13322.7703684236
 30
0.0
 11
18236.2677859514
 21
13181.1809730381
 31
0.0
 12
18282.9250329672
 22
13161.0876582067
 32
0.0
 13
18282.9250329672
 23
13161.0876582067
 33
0.0
  0
SOLID
  5
370
330
36B
100
AcDbEntity
  8
0
  6
Continuous
 62
     7
 48
50.0
370
    18
100
AcDbTrace
 10
18064.6085530447
 20
12148.6729566341
 30
0.0
 11
18094.8966671141
 21
12312.9465094237
 31
0.0
 12
18044.1190390354
 22
12314.453986356
 32
0.0
 13
18044.1190390354
 23
12314.453986356
 33
0.0
  0
LINE
  5
371
330
36B
100
AcDbEntity
  8
0
  6
Continuous
 62
     7
 48
50.0
370
     0
100
AcDbLine
 10
17802.0267547412
 20
13566.5900189546
 30
0.0
 11
18370.2150720131
 21
13301.6394553365
 31
0.0
  0
LINE
  5
372
330
36B
100
AcDbEntity
  8
0
  6
Continuous
 62
     7
 48
50.0
370
     0
100
AcDbLine
 10
16571.1003678862
 20
12148.6729566341
 30
0.0
 11
18114.6085530447
 21
12148.6729566341
 31
0.0
  0
MTEXT
  5
373
330
36B
100
AcDbEntity
  8
0
  6
Continuous
 62
     7
 48
50.0
370
    18
100
AcDbMText
 10
17857.4755447539
 20
12524.8200891107
 30
0.0
 40
175.0
 41
0.0
 71
     1
 72
     1
  1
25°
  7
SLDTEXTSTYLE0
 11
0.182823362728945
 21
0.9831457765969809
 31
0.0
 73
     1
 44
1.0
  0
ENDBLK
  5
36D
330
36B
100
AcDbEntity
  8
0
100
AcDbBlockEnd
  0
BLOCK
  5
376
330
375
100
AcDbEntity
  8
0
100
AcDbBlockBegin
  2
_D_5
 70
     0
 10
0.0
 20
0.0
 30
0.0
  3
_D_5
  1

  0
SOLID
  5
378
330
375
100
AcDbEntity
  8
0
  6
Continuous
 62
     7
 48
50.0
370
    18
100
AcDbTrace
 10
16576.9994900211
 20
10529.6048778515
 30
0.0
 11
16742.0994900211
 21
10504.2048778515
 31
0.0
 12
16742.0994900211
 22
10555.0048778515
 32
0.0
 13
16742.0994900211
 23
10555.0048778515
 33
0.0
  0
SOLID
  5
379
330
375
100
AcDbEntity
  8
0
  6
Continuous
 62
     7
 48
50.0
370
    18
100
AcDbTrace
 10
18986.999490021
 20
10529.6048778515
 30
0.0
 11
18821.899490021
 21
10555.0048778515
 31
0.0
 12
18821.899490021
 22
10504.2048778515
 32
0.0
 13
18821.899490021
 23
10504.2048778515
 33
0.0
  0
LINE
  5
37A
330
375
100
AcDbEntity
  8
0
  6
Continuous
 62
     7
 48
50.0
370
     0
100
AcDbLine
 10
16576.9994900211
 20
12198.6729566342
 30
0.0
 11
16576.9994900211
 21
10479.6048778515
 31
0.0
  0
LINE
  5
37B
330
375
100
AcDbEntity
  8
0
  6
Continuous
 62
     7
 48
50.0
370
     0
100
AcDbLine
 10
18986.999490021
 20
12198.6729566342
 30
0.0
 11
18986.999490021
 21
10479.6048778515
 31
0.0
  0
LINE
  5
37C
330
375
100
AcDbEntity
  8
0
  6
Continuous
 62
     7
 48
50.0
370
     0
100
AcDbLine
 10
16576.9994900211
 20
10529.6048778515
 30
0.0
 11
18986.999490021
 21
10529.6048778515
 31
0.0
  0
MTEXT
  5
37D
330
375
100
AcDbEntity
  8
0
  6
Continuous
 62
     7
 48
50.0
370
    18
100
AcDbMText
 10
17237.9908502558
 20
10755.1917235805
 30
0.0
 40
175.0
 41
0.0
 71
     1
 72
     1
  1
2410,00
  7
SLDTEXTSTYLE0
 73
     1
 44
1.0
  0
ENDBLK
  5
377
330
375
100
AcDbEntity
  8
0
100
AcDbBlockEnd
  0
BLOCK
  5
380
330
37F
100
AcDbEntity
  8
0
100
AcDbBlockBegin
  2
_D_6
 70
     0
 10
0.0
 20
0.0
 30
0.0
  3
_D_6
  1

  0
SOLID
  5
382
330
37F
100
AcDbEntity
  8
0
  6
Continuous
 62
     7
 48
50.0
370
    18
100
AcDbTrace
 10
15729.4438267552
 20
15415.9477586146
 30
0.0
 11
15894.5438267552
 21
15390.5477586146
 31
0.0
 12
15894.5438267552
 22
15441.3477586146
 32
0.0
 13
15894.5438267552
 23
15441.3477586146
 33
0.0
  0
SOLID
  5
383
330
37F
100
AcDbEntity
  8
0
  6
Continuous
 62
     7
 48
50.0
370
    18
100
AcDbTrace
 10
19896.3319140657
 20
15415.9477586146
 30
0.0
 11
19731.2319140657
 21
15441.3477586146
 31
0.0
 12
19731.2319140657
 22
15390.5477586146
 32
0.0
 13
19731.2319140657
 23
15390.5477586146
 33
0.0
  0
LINE
  5
384
330
37F
100
AcDbEntity
  8
0
  6
Continuous
 62
     7
 48
50.0
370
     0
100
AcDbLine
 10
15729.4438267552
 20
14815.3123623775
 30
0.0
 11
15729.4438267552
 21
15465.9477586146
 31
0.0
  0
LINE
  5
385
330
37F
100
AcDbEntity
  8
0
  6
Continuous
 62
     7
 48
50.0
370
     0
100
AcDbLine
 10
19896.3319140657
 20
12916.3956533483
 30
0.0
 11
19896.3319140657
 21
15465.9477586146
 31
0.0
  0
LINE
  5
386
330
37F
100
AcDbEntity
  8
0
  6
Continuous
 62
     7
 48
50.0
370
     0
100
AcDbLine
 10
15729.4438267552
 20
15415.9477586146
 30
0.0
 11
19896.3319140657
 21
15415.9477586146
 31
0.0
  0
MTEXT
  5
387
330
37F
100
AcDbEntity
  8
0
  6
Continuous
 62
     7
 48
50.0
370
    18
100
AcDbMText
 10
17786.9035542153
 20
15641.5346043436
 30
0.0
 40
175.0
 41
0.0
 71
     1
 72
     1
  1
4167
  7
SLDTEXTSTYLE0
 73
     1
 44
1.0
  0
ENDBLK
  5
381
330
37F
100
AcDbEntity
  8
0
100
AcDbBlockEnd
  0
BLOCK
  5
38A
330
389
100
AcDbEntity
  8
0
100
AcDbBlockBegin
  2
_D_7
 70
     0
 10
0.0
 20
0.0
 30
0.0
  3
_D_7
  1

  0
SOLID
  5
38C
330
389
100
AcDbEntity
  8
0
  6
Continuous
 62
     7
 48
50.0
370
    18
100
AcDbTrace
 10
15824.2803681798
 20
14968.6899817796
 30
0.0
 11
15963.1772799713
 21
14875.8954889755
 31
0.0
 12
15984.6462876677
 22
14921.9359245569
 32
0.0
 13
15984.6462876677
 23
14921.9359245569
 33
0.0
  0
SOLID
  5
38D
330
389
100
AcDbEntity
  8
0
  6
Continuous
 62
     7
 48
50.0
370
    18
100
AcDbTrace
 10
17890.6621226232
 20
14005.1203450104
 30
0.0
 11
17751.7652108317
 21
14097.9148378146
 31
0.0
 12
17730.2962031352
 22
14051.8744022331
 32
0.0
 13
17730.2962031352
 23
14051.8744022331
 33
0.0
  0
LINE
  5
38E
330
389
100
AcDbEntity
  8
0
  6
Continuous
 62
     7
 48
50.0
370
     0
100
AcDbLine
 10
15767.4794703118
 20
14846.8800632108
 30
0.0
 11
15845.4112812668
 21
15014.0053711314
 31
0.0
  0
LINE
  5
38F
330
389
100
AcDbEntity
  8
0
  6
Continuous
 62
     7
 48
50.0
370
     0
100
AcDbLine
 10
17833.8612247555
 20
13883.310426442
 30
0.0
 11
17911.7930357102
 21
14050.4357343623
 31
0.0
  0
LINE
  5
390
330
389
100
AcDbEntity
  8
0
  6
Continuous
 62
     7
 48
50.0
370
     0
100
AcDbLine
 10
15824.2803681798
 20
14968.6899817796
 30
0.0
 11
17890.6621226232
 21
14005.1203450104
 31
0.0
  0
MTEXT
  5
391
330
389
100
AcDbEntity
  8
0
  6
Continuous
 62
     7
 48
50.0
370
    18
100
AcDbMText
 10
16821.1417008145
 20
14752.7534526389
 30
0.0
 40
175.0
 41
0.0
 71
     1
 72
     1
  1
2280,00
  7
SLDTEXTSTYLE0
 11
0.9063077870365791
 21
-0.4226182617408513
 31
0.0
 73
     1
 44
1.0
  0
ENDBLK
  5
38B
330
389
100
AcDbEntity
  8
0
100
AcDbBlockEnd
  0
BLOCK
  5
395
330
394
100
AcDbEntity
  8
0
100
AcDbBlockBegin
  2
_D_8
 70
     0
 10
0.0
 20
0.0
 30
0.0
  3
_D_8
  1

  0
SOLID
  5
397
330
394
100
AcDbEntity
  8
0
  6
Continuous
 62
     7
 48
50.0
370
    18
100
AcDbTrace
 10
19416.638544237
 20
15026.2789745659
 30
0.0
 11
19251.538544237
 21
15051.6789745659
 31
0.0
 12
19251.538544237
 22
15000.8789745659
 32
0.0
 13
19251.538544237
 23
15000.8789745659
 33
0.0
  0
SOLID
  5
398
330
394
100
AcDbEntity
  8
0
  6
Continuous
 62
     7
 48
50.0
370
    18
100
AcDbTrace
 10
16190.1828223865
 20
15026.2789745659
 30
0.0
 11
16355.2828223865
 21
15000.8789745659
 31
0.0
 12
16355.2828223865
 22
15051.6789745659
 32
0.0
 13
16355.2828223865
 23
15051.6789745659
 33
0.0
  0
LINE
  5
399
330
394
100
AcDbEntity
  8
0
  6
Continuous
 62
     7
 48
50.0
370
     0
100
AcDbLine
 10
19416.638544237
 20
12985.6074366107
 30
0.0
 11
19416.638544237
 21
15076.2789745659
 31
0.0
  0
LINE
  5
39A
330
394
100
AcDbEntity
  8
0
  6
Continuous
 62
     7
 48
50.0
370
     0
100
AcDbLine
 10
16190.1828223865
 20
14490.1284484076
 30
0.0
 11
16190.1828223865
 21
15076.2789745659
 31
0.0
  0
LINE
  5
39B
330
394
100
AcDbEntity
  8
0
  6
Continuous
 62
     7
 48
50.0
370
     0
100
AcDbLine
 10
19416.638544237
 20
15026.2789745659
 30
0.0
 11
16190.1828223865
 21
15026.2789745659
 31
0.0
  0
MTEXT
  5
39C
330
394
100
AcDbEntity
  8
0
  6
Continuous
 62
     7
 48
50.0
370
    18
100
AcDbMText
 10
17702.7458627971
 20
15251.8658202948
 30
0.0
 40
175.0
 41
0.0
 71
     1
 72
     1
  1
3226
  7
SLDTEXTSTYLE0
 73
     1
 44
1.0
  0
ENDBLK
  5
396
330
394
100
AcDbEntity
  8
0
100
AcDbBlockEnd
  0
BLOCK
  5
39F
330
39E
100
AcDbEntity
  8
0
100
AcDbBlockBegin
  2
_D_9
 70
     0
 10
0.0
 20
0.0
 30
0.0
  3
_D_9
  1

  0
SOLID
  5
3A1
330
39E
100
AcDbEntity
  8
0
  6
Continuous
 62
     7
 48
50.0
370
    18
100
AcDbTrace
 10
15858.7242709516
 20
14522.9407892691
 30
0.0
 11
15833.3242709516
 21
14357.8407892691
 31
0.0
 12
15884.1242709516
 22
14357.8407892691
 32
0.0
 13
15884.1242709516
 23
14357.8407892691
 33
0.0
  0
SOLID
  5
3A2
330
39E
100
AcDbEntity
  8
0
  6
Continuous
 62
     7
 48
50.0
370
    18
100
AcDbTrace
 10
15858.7242709516
 20
12148.6729566341
 30
0.0
 11
15884.1242709516
 21
12313.7729566341
 31
0.0
 12
15833.3242709516
 22
12313.7729566341
 32
0.0
 13
15833.3242709516
 23
12313.7729566341
 33
0.0
  0
LINE
  5
3A3
330
39E
100
AcDbEntity
  8
0
  6
Continuous
 62
     7
 48
50.0
370
     0
100
AcDbLine
 10
16199.2113426208
 20
14522.9407892691
 30
0.0
 11
15808.7242709516
 21
14522.9407892691
 31
0.0
  0
LINE
  5
3A4
330
39E
100
AcDbEntity
  8
0
  6
Continuous
 62
     7
 48
50.0
370
     0
100
AcDbLine
 10
15858.7242709516
 20
14522.9407892691
 30
0.0
 11
15858.7242709516
 21
12148.6729566341
 31
0.0
  0
MTEXT
  5
3A5
330
39E
100
AcDbEntity
  8
0
  6
Continuous
 62
     7
 48
50.0
370
    18
100
AcDbMText
 10
15633.1374252227
 20
12964.3432963328
 30
0.0
 40
175.0
 41
0.0
 71
     1
 72
     1
  1
2374
  7
SLDTEXTSTYLE0
 11
-7.044195017643634E-15
 21
1.0
 31
0.0
 73
     1
 44
1.0
  0
ENDBLK
  5
3A0
330
39E
100
AcDbEntity
  8
0
100
AcDbBlockEnd
  0
BLOCK
  5
3A8
330
3A7
100
AcDbEntity
  8
0
100
AcDbBlockBegin
  2
_D_10
 70
     0
 10
0.0
 20
0.0
 30
0.0
  3
_D_10
  1

  0
SOLID
  5
3AA
330
3A7
100
AcDbEntity
  8
0
  6
Continuous
 62
     7
 48
50.0
370
    18
100
AcDbTrace
 10
20934.2488943624
 20
13034.0566531565
 30
0.0
 11
20959.6488943624
 21
13199.1566531565
 31
0.0
 12
20908.8488943624
 22
13199.1566531565
 32
0.0
 13
20908.8488943624
 23
13199.1566531565
 33
0.0
  0
SOLID
  5
3AB
330
3A7
100
AcDbEntity
  8
0
  6
Continuous
 62
     7
 48
50.0
370
    18
100
AcDbTrace
 10
20934.2488943624
 20
12148.6729566341
 30
0.0
 11
20908.8488943624
 21
11983.5729566341
 31
0.0
 12
20959.6488943624
 22
11983.5729566341
 32
0.0
 13
20959.6488943624
 23
11983.5729566341
 33
0.0
  0
LINE
  5
3AC
330
3A7
100
AcDbEntity
  8
0
  6
Continuous
 62
     7
 48
50.0
370
     0
100
AcDbLine
 10
19492.133676351
 20
13034.0566531565
 30
0.0
 11
20984.2488943624
 21
13034.0566531565
 31
0.0
  0
LINE
  5
3AD
330
3A7
100
AcDbEntity
  8
0
  6
Continuous
 62
     7
 48
50.0
370
     0
100
AcDbLine
 10
16571.1003678862
 20
12148.6729566341
 30
0.0
 11
20984.2488943624
 21
12148.6729566341
 31
0.0
  0
LINE
  5
3AE
330
3A7
100
AcDbEntity
  8
0
  6
Continuous
 62
     7
 48
50.0
370
     0
100
AcDbLine
 10
20934.2488943624
 20
13034.0566531565
 30
0.0
 11
20934.2488943624
 21
13351.5566531565
 31
0.0
  0
LINE
  5
3AF
330
3A7
100
AcDbEntity
  8
0
  6
Continuous
 62
     7
 48
50.0
370
     0
100
AcDbLine
 10
20934.2488943624
 20
13034.0566531565
 30
0.0
 11
20934.2488943624
 21
12148.6729566341
 31
0.0
  0
LINE
  5
3B0
330
3A7
100
AcDbEntity
  8
0
  6
Continuous
 62
     7
 48
50.0
370
     0
100
AcDbLine
 10
20934.2488943624
 20
12148.6729566341
 30
0.0
 11
20934.2488943624
 21
11831.1729566341
 31
0.0
  0
MTEXT
  5
3B1
330
3A7
100
AcDbEntity
  8
0
  6
Continuous
 62
     7
 48
50.0
370
    18
100
AcDbMText
 10
20708.6620486334
 20
12371.9541167671
 30
0.0
 40
175.0
 41
0.0
 71
     1
 72
     1
  1
885
  7
SLDTEXTSTYLE0
 11
-7.044195017643634E-15
 21
1.0
 31
0.0
 73
     1
 44
1.0
  0
ENDBLK
  5
3A9
330
3A7
100
AcDbEntity
  8
0
100
AcDbBlockEnd
  0
BLOCK
  5
534
330
533
100
AcDbEntity
  8
0
100
AcDbBlockBegin
  2
_D_11
 70
     0
 10
0.0
 20
0.0
 30
0.0
  3
_D_11
  1

  0
SOLID
  5
536
330
533
100
AcDbEntity
  8
0
  6
Continuous
 62
     7
 48
50.0
370
    18
100
AcDbTrace
 10
8008.4880239433
 20
9690.1468698511
 30
0.0
 11
8173.5880239433
 21
9664.7468698511
 31
0.0
 12
8173.5880239433
 22
9715.5468698511
 32
0.0
 13
8173.5880239433
 23
9715.5468698511
 33
0.0
  0
SOLID
  5
537
330
533
100
AcDbEntity
  8
0
  6
Continuous
 62
     7
 48
50.0
370
    18
100
AcDbTrace
 10
10378.4880239433
 20
9690.1468698512
 30
0.0
 11
10213.3880239433
 21
9715.5468698511
 31
0.0
 12
10213.3880239433
 22
9664.7468698511
 32
0.0
 13
10213.3880239433
 23
9664.7468698511
 33
0.0
  0
LINE
  5
538
330
533
100
AcDbEntity
  8
0
  6
Continuous
 62
     7
 48
50.0
370
     0
100
AcDbLine
 10
8008.4880239434
 20
8921.6210034059
 30
0.0
 11
8008.4880239433
 21
9740.1468698511
 31
0.0
  0
LINE
  5
539
330
533
100
AcDbEntity
  8
0
  6
Continuous
 62
     7
 48
50.0
370
     0
100
AcDbLine
 10
10378.4880239434
 20
8921.621003406
 30
0.0
 11
10378.4880239433
 21
9740.1468698512
 31
0.0
  0
LINE
  5
53A
330
533
100
AcDbEntity
  8
0
  6
Continuous
 62
     7
 48
50.0
370
     0
100
AcDbLine
 10
8008.4880239433
 20
9690.1468698511
 30
0.0
 11
10378.4880239433
 21
9690.1468698512
 31
0.0
  0
MTEXT
  5
53B
330
533
100
AcDbEntity
  8
0
  6
Continuous
 62
     7
 48
50.0
370
    18
100
AcDbMText
 10
8573.4095303093
 20
9915.7337155801
 30
0.0
 40
175.0
 41
0.0
 71
     1
 72
     1
  1
2370,00
  7
SLDTEXTSTYLE0
 73
     1
 44
1.0
  0
ENDBLK
  5
535
330
533
100
AcDbEntity
  8
0
100
AcDbBlockEnd
  0
ENDSEC
  0
SECTION
  2
ENTITIES
  0
LINE
  5
74
330
1F
100
AcDbEntity
  8
0
  6
Continuous
 62
     7
 48
50.0
370
    18
100
AcDbLine
 10
19711.3478728061
 20
12148.6729566341
 30
0.0
 11
7664.4520915556
 21
12148.6729566341
 31
0.0
  0
LINE
  5
75
330
1F
100
AcDbEntity
  8
0
  6
Continuous
 62
     7
 48
50.0
370
    25
100
AcDbLine
 10
10342.9880339658
 20
13838.6260453945
 30
0.0
 11
10378.4880239523
 21
13838.6260453945
 31
0.0
  0
LINE
  5
76
330
1F
100
AcDbEntity
  8
0
  6
Continuous
 62
     7
 48
50.0
370
    25
100
AcDbLine
 10
9183.9880246675
 20
13838.6260453945
 30
0.0
 11
9202.9880184686
 21
13838.6260453945
 31
0.0
  0
LINE
  5
77
330
1F
100
AcDbEntity
  8
0
  6
Continuous
 62
     7
 48
50.0
370
    25
100
AcDbLine
 10
8008.4880191839
 20
13838.6260453945
 30
0.0
 11
8043.9880687749
 21
13838.6260453945
 31
0.0
  0
LINE
  5
78
330
1F
100
AcDbEntity
  8
0
  6
Continuous
 62
     7
 48
50.0
370
    25
100
AcDbLine
 10
10378.4880239523
 20
13948.0852071529
 30
0.0
 11
10342.9880339658
 21
13948.0852071529
 31
0.0
  0
LINE
  5
79
330
1F
100
AcDbEntity
  8
0
  6
Continuous
 62
     7
 48
50.0
370
    25
100
AcDbLine
 10
9202.9880184686
 20
13948.0852071529
 30
0.0
 11
9183.9880246675
 21
13948.0852071529
 31
0.0
  0
LINE
  5
7A
330
1F
100
AcDbEntity
  8
0
  6
Continuous
 62
     7
 48
50.0
370
    25
100
AcDbLine
 10
8043.9880687749
 20
13948.0852071529
 30
0.0
 11
8008.4880191839
 21
13948.0852071529
 31
0.0
  0
LINE
  5
7B
330
1F
100
AcDbEntity
  8
0
  6
Continuous
 62
     7
 48
50.0
370
    25
100
AcDbLine
 10
10342.9880339658
 20
12943.0979673152
 30
0.0
 11
10378.4880239523
 21
12943.0979673152
 31
0.0
  0
LINE
  5
7C
330
1F
100
AcDbEntity
  8
0
  6
Continuous
 62
     7
 48
50.0
370
    25
100
AcDbLine
 10
9183.9880246675
 20
12943.0979673152
 30
0.0
 11
9202.9880184686
 21
12943.0979673152
 31
0.0
  0
LINE
  5
7D
330
1F
100
AcDbEntity
  8
0
  6
Continuous
 62
     7
 48
50.0
370
    25
100
AcDbLine
 10
8008.4880191839
 20
12943.0979673152
 30
0.0
 11
8043.9880687749
 21
12943.0979673152
 31
0.0
  0
LINE
  5
7E
330
1F
100
AcDbEntity
  8
0
  6
Continuous
 62
     7
 48
50.0
370
    25
100
AcDbLine
 10
10378.4880239523
 20
13052.5571886783
 30
0.0
 11
10342.8880173719
 21
13052.5571886783
 31
0.0
  0
LINE
  5
7F
330
1F
100
AcDbEntity
  8
0
  6
Continuous
 62
     7
 48
50.0
370
    25
100
AcDbLine
 10
9203.0880350626
 20
13052.5571886783
 30
0.0
 11
9183.8880378759
 21
13052.5571886783
 31
0.0
  0
LINE
  5
80
330
1F
100
AcDbEntity
  8
0
  6
Continuous
 62
     7
 48
50.0
370
    25
100
AcDbLine
 10
8044.0879661596
 20
13052.5571886783
 30
0.0
 11
8008.4880191839
 21
13052.5571886783
 31
0.0
  0
LINE
  5
81
330
1F
100
AcDbEntity
  8
0
  6
Continuous
 62
     7
 48
50.0
370
    25
100
AcDbLine
 10
10342.9880339658
 20
13518.2813588863
 30
0.0
 11
10378.4880239523
 21
13518.2813588863
 31
0.0
  0
LINE
  5
82
330
1F
100
AcDbEntity
  8
0
  6
Continuous
 62
     7
 48
50.0
370
    25
100
AcDbLine
 10
9183.9880246675
 20
13518.2813588863
 30
0.0
 11
9202.9880184686
 21
13518.2813588863
 31
0.0
  0
LINE
  5
83
330
1F
100
AcDbEntity
  8
0
  6
Continuous
 62
     7
 48
50.0
370
    25
100
AcDbLine
 10
8008.4880191839
 20
13518.2813588863
 30
0.0
 11
8043.9880687749
 21
13518.2813588863
 31
0.0
  0
LINE
  5
84
330
1F
100
AcDbEntity
  8
0
  6
Continuous
 62
     7
 48
50.0
370
    25
100
AcDbLine
 10
10378.4880239523
 20
13627.740639854
 30
0.0
 11
10342.8880173719
 21
13627.740639854
 31
0.0
  0
LINE
  5
85
330
1F
100
AcDbEntity
  8
0
  6
Continuous
 62
     7
 48
50.0
370
    25
100
AcDbLine
 10
9203.0880350626
 20
13627.740639854
 30
0.0
 11
9183.8880378759
 21
13627.740639854
 31
0.0
  0
LINE
  5
86
330
1F
100
AcDbEntity
  8
0
  6
Continuous
 62
     7
 48
50.0
370
    25
100
AcDbLine
 10
8044.0879661596
 20
13627.740639854
 30
0.0
 11
8008.4880191839
 21
13627.740639854
 31
0.0
  0
LINE
  5
87
330
1F
100
AcDbEntity
  8
0
  6
Continuous
 62
     7
 48
50.0
370
    25
100
AcDbLine
 10
10342.9880339658
 20
14413.8094369655
 30
0.0
 11
10378.4880239523
 21
14413.8094369655
 31
0.0
  0
LINE
  5
88
330
1F
100
AcDbEntity
  8
0
  6
Continuous
 62
     7
 48
50.0
370
    25
100
AcDbLine
 10
9183.9880246675
 20
14413.8094369655
 30
0.0
 11
9202.9880184686
 21
14413.8094369655
 31
0.0
  0
LINE
  5
89
330
1F
100
AcDbEntity
  8
0
  6
Continuous
 62
     7
 48
50.0
370
    25
100
AcDbLine
 10
8008.4880191839
 20
14413.8094369655
 30
0.0
 11
8043.9880687749
 21
14413.8094369655
 31
0.0
  0
LINE
  5
8A
330
1F
100
AcDbEntity
  8
0
  6
Continuous
 62
     7
 48
50.0
370
    25
100
AcDbLine
 10
10378.4880239523
 20
14523.2685987239
 30
0.0
 11
10342.9880339658
 21
14523.2685987239
 31
0.0
  0
LINE
  5
8B
330
1F
100
AcDbEntity
  8
0
  6
Continuous
 62
     7
 48
50.0
370
    25
100
AcDbLine
 10
9202.9880184686
 20
14523.2685987239
 30
0.0
 11
9183.9880246675
 21
14523.2685987239
 31
0.0
  0
LINE
  5
8C
330
1F
100
AcDbEntity
  8
0
  6
Continuous
 62
     7
 48
50.0
370
    25
100
AcDbLine
 10
8043.9880687749
 20
14523.2685987239
 30
0.0
 11
8008.4880191839
 21
14523.2685987239
 31
0.0
  0
LINE
  5
8D
330
1F
100
AcDbEntity
  8
0
  6
Continuous
 62
     7
 48
50.0
370
    25
100
AcDbLine
 10
9202.9880184686
 20
13837.9950706249
 30
0.0
 11
10342.9880339658
 21
13837.9950706249
 31
0.0
  0
LINE
  5
8E
330
1F
100
AcDbEntity
  8
0
  6
Continuous
 62
     7
 48
50.0
370
    25
100
AcDbLine
 10
9202.9880184686
 20
13958.441275764
 30
0.0
 11
9202.9880184686
 21
13837.9950706249
 31
0.0
  0
LINE
  5
8F
330
1F
100
AcDbEntity
  8
0
  6
Continuous
 62
     7
 48
50.0
370
    25
100
AcDbLine
 10
9203.0880350626
 20
13958.441275764
 30
0.0
 11
9202.9880184686
 21
13958.441275764
 31
0.0
  0
LINE
  5
90
330
1F
100
AcDbEntity
  8
0
  6
Continuous
 62
     7
 48
50.0
370
    25
100
AcDbLine
 10
9203.0880350626
 20
13958.441275764
 30
0.0
 11
9203.0880350626
 21
14078.8874809032
 31
0.0
  0
LINE
  5
91
330
1F
100
AcDbEntity
  8
0
  6
Continuous
 62
     7
 48
50.0
370
    25
100
AcDbLine
 10
9203.0880350626
 20
14078.8874809032
 30
0.0
 11
9202.9880184686
 21
14078.8874809032
 31
0.0
  0
LINE
  5
92
330
1F
100
AcDbEntity
  8
0
  6
Continuous
 62
     7
 48
50.0
370
    25
100
AcDbLine
 10
9202.9880184686
 20
14560.6721822505
 30
0.0
 11
9202.9880184686
 21
14078.8874809032
 31
0.0
  0
LINE
  5
93
330
1F
100
AcDbEntity
  8
0
  6
Continuous
 62
     7
 48
50.0
370
    25
100
AcDbLine
 10
9203.0880350626
 20
14560.6721822505
 30
0.0
 11
9202.9880184686
 21
14560.6721822505
 31
0.0
  0
LINE
  5
94
330
1F
100
AcDbEntity
  8
0
  6
Continuous
 62
     7
 48
50.0
370
    25
100
AcDbLine
 10
9203.0880350626
 20
14560.6721822505
 30
0.0
 11
9203.0880350626
 21
14681.1183873897
 31
0.0
  0
LINE
  5
95
330
1F
100
AcDbEntity
  8
0
  6
Continuous
 62
     7
 48
50.0
370
    25
100
AcDbLine
 10
9203.0880350626
 20
14681.1183873897
 30
0.0
 11
9202.9880184686
 21
14681.1183873897
 31
0.0
  0
LINE
  5
96
330
1F
100
AcDbEntity
  8
0
  6
Continuous
 62
     7
 48
50.0
370
    25
100
AcDbLine
 10
9202.9880184686
 20
14801.5645925289
 30
0.0
 11
9202.9880184686
 21
14681.1183873897
 31
0.0
  0
LINE
  5
97
330
1F
100
AcDbEntity
  8
0
  6
Continuous
 62
     7
 48
50.0
370
    25
100
AcDbLine
 10
10342.9880339658
 20
14801.5645925289
 30
0.0
 11
9202.9880184686
 21
14801.5645925289
 31
0.0
  0
LINE
  5
98
330
1F
100
AcDbEntity
  8
0
  6
Continuous
 62
     7
 48
50.0
370
    25
100
AcDbLine
 10
10342.9880339658
 20
14681.1183873897
 30
0.0
 11
10342.9880339658
 21
14801.5645925289
 31
0.0
  0
LINE
  5
99
330
1F
100
AcDbEntity
  8
0
  6
Continuous
 62
     7
 48
50.0
370
    25
100
AcDbLine
 10
10342.8880173719
 20
14681.1183873897
 30
0.0
 11
10342.9880339658
 21
14681.1183873897
 31
0.0
  0
LINE
  5
9A
330
1F
100
AcDbEntity
  8
0
  6
Continuous
 62
     7
 48
50.0
370
    25
100
AcDbLine
 10
10342.8880173719
 20
14560.6721822505
 30
0.0
 11
10342.8880173719
 21
14681.1183873897
 31
0.0
  0
LINE
  5
9B
330
1F
100
AcDbEntity
  8
0
  6
Continuous
 62
     7
 48
50.0
370
    25
100
AcDbLine
 10
10342.8880173719
 20
14560.6721822505
 30
0.0
 11
10342.9880339658
 21
14560.6721822505
 31
0.0
  0
LINE
  5
9C
330
1F
100
AcDbEntity
  8
0
  6
Continuous
 62
     7
 48
50.0
370
    25
100
AcDbLine
 10
10342.9880339658
 20
14078.8874809032
 30
0.0
 11
10342.9880339658
 21
14560.6721822505
 31
0.0
  0
LINE
  5
9D
330
1F
100
AcDbEntity
  8
0
  6
Continuous
 62
     7
 48
50.0
370
    25
100
AcDbLine
 10
10342.8880173719
 20
14078.8874809032
 30
0.0
 11
10342.9880339658
 21
14078.8874809032
 31
0.0
  0
LINE
  5
9E
330
1F
100
AcDbEntity
  8
0
  6
Continuous
 62
     7
 48
50.0
370
    25
100
AcDbLine
 10
10342.8880173719
 20
13958.441275764
 30
0.0
 11
10342.8880173719
 21
14078.8874809032
 31
0.0
  0
LINE
  5
9F
330
1F
100
AcDbEntity
  8
0
  6
Continuous
 62
     7
 48
50.0
370
    25
100
AcDbLine
 10
10342.8880173719
 20
13958.441275764
 30
0.0
 11
10342.9880339658
 21
13958.441275764
 31
0.0
  0
LINE
  5
A0
330
1F
100
AcDbEntity
  8
0
  6
Continuous
 62
     7
 48
50.0
370
    25
100
AcDbLine
 10
10342.9880339658
 20
13837.9950706249
 30
0.0
 11
10342.9880339658
 21
13958.441275764
 31
0.0
  0
LINE
  5
A1
330
1F
100
AcDbEntity
  8
0
  6
Continuous
 62
     7
 48
50.0
370
    25
100
AcDbLine
 10
9211.9880218065
 20
14797.7611009365
 30
0.0
 11
10333.988030628
 21
14797.7611009365
 31
0.0
  0
LINE
  5
A2
330
1F
100
AcDbEntity
  8
0
  6
Continuous
 62
     7
 48
50.0
370
    25
100
AcDbLine
 10
9211.9880218065
 20
13841.7985622173
 30
0.0
 11
9211.9880218065
 21
14797.7611009365
 31
0.0
  0
LINE
  5
A3
330
1F
100
AcDbEntity
  8
0
  6
Continuous
 62
     7
 48
50.0
370
    25
100
AcDbLine
 10
10333.988030628
 20
13841.7985622173
 30
0.0
 11
9211.9880218065
 21
13841.7985622173
 31
0.0
  0
LINE
  5
A4
330
1F
100
AcDbEntity
  8
0
  6
Continuous
 62
     7
 48
50.0
370
    25
100
AcDbLine
 10
10333.988030628
 20
14797.7611009365
 30
0.0
 11
10333.988030628
 21
13841.7985622173
 31
0.0
  0
LINE
  5
A5
330
1F
100
AcDbEntity
  8
0
  6
Continuous
 62
     7
 48
50.0
370
    25
100
AcDbLine
 10
10342.9880339658
 20
13829.96525209
 30
0.0
 11
10342.9880339658
 21
13837.9950706249
 31
0.0
  0
LINE
  5
A6
330
1F
100
AcDbEntity
  8
0
  6
Continuous
 62
     7
 48
50.0
370
    25
100
AcDbLine
 10
9202.9880184686
 20
13829.96525209
 30
0.0
 11
9202.9880184686
 21
13837.9950706249
 31
0.0
  0
LINE
  5
A7
330
1F
100
AcDbEntity
  8
0
  6
Continuous
 62
     7
 48
50.0
370
    25
100
AcDbLine
 10
10332.9880435026
 20
13841.7985622173
 30
0.0
 11
10332.9880435026
 21
14796.8152944332
 31
0.0
  0
LINE
  5
A8
330
1F
100
AcDbEntity
  8
0
  6
Continuous
 62
     7
 48
50.0
370
    25
100
AcDbLine
 10
10333.988030628
 20
14797.7611009365
 30
0.0
 11
10332.9880435026
 21
14796.8152944332
 31
0.0
  0
LINE
  5
A9
330
1F
100
AcDbEntity
  8
0
  6
Continuous
 62
     7
 48
50.0
370
    25
100
AcDbLine
 10
9212.9880387342
 20
14796.8152944332
 30
0.0
 11
9212.9880387342
 21
13841.7985622173
 31
0.0
  0
LINE
  5
AA
330
1F
100
AcDbEntity
  8
0
  6
Continuous
 62
     7
 48
50.0
370
    25
100
AcDbLine
 10
9212.9880387342
 20
14796.8152944332
 30
0.0
 11
9211.9880218065
 21
14797.7611009365
 31
0.0
  0
LINE
  5
AB
330
1F
100
AcDbEntity
  8
0
  6
Continuous
 62
     7
 48
50.0
370
    25
100
AcDbLine
 10
10332.9880435026
 20
14795.9789220577
 30
0.0
 11
9212.9880387342
 21
14795.9789220577
 31
0.0
  0
LINE
  5
AC
330
1F
100
AcDbEntity
  8
0
  6
Continuous
 62
     7
 48
50.0
370
    25
100
AcDbLine
 10
10342.9880339658
 20
14078.8874809032
 30
0.0
 11
10342.9880339658
 21
14042.6351014858
 31
0.0
  0
LINE
  5
AD
330
1F
100
AcDbEntity
  8
0
  6
Continuous
 62
     7
 48
50.0
370
    25
100
AcDbLine
 10
10342.8880173719
 20
14042.6351014858
 30
0.0
 11
10342.9880339658
 21
14042.6351014858
 31
0.0
  0
LINE
  5
AE
330
1F
100
AcDbEntity
  8
0
  6
Continuous
 62
     7
 48
50.0
370
    25
100
AcDbLine
 10
9202.9880184686
 20
14078.8874809032
 30
0.0
 11
9202.9880184686
 21
14042.6351014858
 31
0.0
  0
LINE
  5
AF
330
1F
100
AcDbEntity
  8
0
  6
Continuous
 62
     7
 48
50.0
370
    25
100
AcDbLine
 10
9203.0880350626
 20
14042.6351014858
 30
0.0
 11
9202.9880184686
 21
14042.6351014858
 31
0.0
  0
LINE
  5
B0
330
1F
100
AcDbEntity
  8
0
  6
Continuous
 62
     7
 48
50.0
370
    25
100
AcDbLine
 10
9202.9880184686
 20
14681.1183873897
 30
0.0
 11
9202.9880184686
 21
14644.8661271816
 31
0.0
  0
LINE
  5
B1
330
1F
100
AcDbEntity
  8
0
  6
Continuous
 62
     7
 48
50.0
370
    25
100
AcDbLine
 10
9203.0880350626
 20
14644.8661271816
 30
0.0
 11
9202.9880184686
 21
14644.8661271816
 31
0.0
  0
LINE
  5
B2
330
1F
100
AcDbEntity
  8
0
  6
Continuous
 62
     7
 48
50.0
370
    25
100
AcDbLine
 10
10342.9880339658
 20
14681.1183873897
 30
0.0
 11
10342.9880339658
 21
14644.8661271816
 31
0.0
  0
LINE
  5
B3
330
1F
100
AcDbEntity
  8
0
  6
Continuous
 62
     7
 48
50.0
370
    25
100
AcDbLine
 10
10342.8880173719
 20
14644.8661271816
 30
0.0
 11
10342.9880339658
 21
14644.8661271816
 31
0.0
  0
LINE
  5
B4
330
1F
100
AcDbEntity
  8
0
  6
Continuous
 62
     7
 48
50.0
370
    25
100
AcDbLine
 10
10332.9880435026
 20
14796.8152944332
 30
0.0
 11
9212.9880387342
 21
14796.8152944332
 31
0.0
  0
LINE
  5
B5
330
1F
100
AcDbEntity
  8
0
  6
Continuous
 62
     7
 48
50.0
370
    25
100
AcDbLine
 10
8043.9880687749
 20
13837.9950706249
 30
0.0
 11
9183.9880246675
 21
13837.9950706249
 31
0.0
  0
LINE
  5
B6
330
1F
100
AcDbEntity
  8
0
  6
Continuous
 62
     7
 48
50.0
370
    25
100
AcDbLine
 10
8043.9880687749
 20
13958.441275764
 30
0.0
 11
8043.9880687749
 21
13837.9950706249
 31
0.0
  0
LINE
  5
B7
330
1F
100
AcDbEntity
  8
0
  6
Continuous
 62
     7
 48
50.0
370
    25
100
AcDbLine
 10
8044.0879661596
 20
13958.441275764
 30
0.0
 11
8043.9880687749
 21
13958.441275764
 31
0.0
  0
LINE
  5
B8
330
1F
100
AcDbEntity
  8
0
  6
Continuous
 62
     7
 48
50.0
370
    25
100
AcDbLine
 10
8044.0879661596
 20
13958.441275764
 30
0.0
 11
8044.0879661596
 21
14078.8874809032
 31
0.0
  0
LINE
  5
B9
330
1F
100
AcDbEntity
  8
0
  6
Continuous
 62
     7
 48
50.0
370
    25
100
AcDbLine
 10
8044.0879661596
 20
14078.8874809032
 30
0.0
 11
8043.9880687749
 21
14078.8874809032
 31
0.0
  0
LINE
  5
BA
330
1F
100
AcDbEntity
  8
0
  6
Continuous
 62
     7
 48
50.0
370
    25
100
AcDbLine
 10
8043.9880687749
 20
14560.6721822505
 30
0.0
 11
8043.9880687749
 21
14078.8874809032
 31
0.0
  0
LINE
  5
BB
330
1F
100
AcDbEntity
  8
0
  6
Continuous
 62
     7
 48
50.0
370
    25
100
AcDbLine
 10
8044.0879661596
 20
14560.6721822505
 30
0.0
 11
8043.9880687749
 21
14560.6721822505
 31
0.0
  0
LINE
  5
BC
330
1F
100
AcDbEntity
  8
0
  6
Continuous
 62
     7
 48
50.0
370
    25
100
AcDbLine
 10
8044.0879661596
 20
14560.6721822505
 30
0.0
 11
8044.0879661596
 21
14681.1183873897
 31
0.0
  0
LINE
  5
BD
330
1F
100
AcDbEntity
  8
0
  6
Continuous
 62
     7
 48
50.0
370
    25
100
AcDbLine
 10
8044.0879661596
 20
14681.1183873897
 30
0.0
 11
8043.9880687749
 21
14681.1183873897
 31
0.0
  0
LINE
  5
BE
330
1F
100
AcDbEntity
  8
0
  6
Continuous
 62
     7
 48
50.0
370
    25
100
AcDbLine
 10
8043.9880687749
 20
14801.5645925289
 30
0.0
 11
8043.9880687749
 21
14681.1183873897
 31
0.0
  0
LINE
  5
BF
330
1F
100
AcDbEntity
  8
0
  6
Continuous
 62
     7
 48
50.0
370
    25
100
AcDbLine
 10
9183.9880246675
 20
14801.5645925289
 30
0.0
 11
8043.9880687749
 21
14801.5645925289
 31
0.0
  0
LINE
  5
C0
330
1F
100
AcDbEntity
  8
0
  6
Continuous
 62
     7
 48
50.0
370
    25
100
AcDbLine
 10
9183.9880246675
 20
14681.1183873897
 30
0.0
 11
9183.9880246675
 21
14801.5645925289
 31
0.0
  0
LINE
  5
C1
330
1F
100
AcDbEntity
  8
0
  6
Continuous
 62
     7
 48
50.0
370
    25
100
AcDbLine
 10
9183.8880378759
 20
14681.1183873897
 30
0.0
 11
9183.9880246675
 21
14681.1183873897
 31
0.0
  0
LINE
  5
C2
330
1F
100
AcDbEntity
  8
0
  6
Continuous
 62
     7
 48
50.0
370
    25
100
AcDbLine
 10
9183.8880378759
 20
14560.6721822505
 30
0.0
 11
9183.8880378759
 21
14681.1183873897
 31
0.0
  0
LINE
  5
C3
330
1F
100
AcDbEntity
  8
0
  6
Continuous
 62
     7
 48
50.0
370
    25
100
AcDbLine
 10
9183.8880378759
 20
14560.6721822505
 30
0.0
 11
9183.9880246675
 21
14560.6721822505
 31
0.0
  0
LINE
  5
C4
330
1F
100
AcDbEntity
  8
0
  6
Continuous
 62
     7
 48
50.0
370
    25
100
AcDbLine
 10
9183.9880246675
 20
14078.8874809032
 30
0.0
 11
9183.9880246675
 21
14560.6721822505
 31
0.0
  0
LINE
  5
C5
330
1F
100
AcDbEntity
  8
0
  6
Continuous
 62
     7
 48
50.0
370
    25
100
AcDbLine
 10
9183.8880378759
 20
14078.8874809032
 30
0.0
 11
9183.9880246675
 21
14078.8874809032
 31
0.0
  0
LINE
  5
C6
330
1F
100
AcDbEntity
  8
0
  6
Continuous
 62
     7
 48
50.0
370
    25
100
AcDbLine
 10
9183.8880378759
 20
13958.441275764
 30
0.0
 11
9183.8880378759
 21
14078.8874809032
 31
0.0
  0
LINE
  5
C7
330
1F
100
AcDbEntity
  8
0
  6
Continuous
 62
     7
 48
50.0
370
    25
100
AcDbLine
 10
9183.8880378759
 20
13958.441275764
 30
0.0
 11
9183.9880246675
 21
13958.441275764
 31
0.0
  0
LINE
  5
C8
330
1F
100
AcDbEntity
  8
0
  6
Continuous
 62
     7
 48
50.0
370
    25
100
AcDbLine
 10
9183.9880246675
 20
13837.9950706249
 30
0.0
 11
9183.9880246675
 21
13958.441275764
 31
0.0
  0
LINE
  5
C9
330
1F
100
AcDbEntity
  8
0
  6
Continuous
 62
     7
 48
50.0
370
    25
100
AcDbLine
 10
8052.9880125082
 20
14797.7611009365
 30
0.0
 11
9174.9880213296
 21
14797.7611009365
 31
0.0
  0
LINE
  5
CA
330
1F
100
AcDbEntity
  8
0
  6
Continuous
 62
     7
 48
50.0
370
    25
100
AcDbLine
 10
8052.9880125082
 20
13841.7985622173
 30
0.0
 11
8052.9880125082
 21
14797.7611009365
 31
0.0
  0
LINE
  5
CB
330
1F
100
AcDbEntity
  8
0
  6
Continuous
 62
     7
 48
50.0
370
    25
100
AcDbLine
 10
9174.9880213296
 20
13841.7985622173
 30
0.0
 11
8052.9880125082
 21
13841.7985622173
 31
0.0
  0
LINE
  5
CC
330
1F
100
AcDbEntity
  8
0
  6
Continuous
 62
     7
 48
50.0
370
    25
100
AcDbLine
 10
9174.9880213296
 20
14797.7611009365
 30
0.0
 11
9174.9880213296
 21
13841.7985622173
 31
0.0
  0
LINE
  5
CD
330
1F
100
AcDbEntity
  8
0
  6
Continuous
 62
     7
 48
50.0
370
    25
100
AcDbLine
 10
9183.9880246675
 20
13829.96525209
 30
0.0
 11
9183.9880246675
 21
13837.9950706249
 31
0.0
  0
LINE
  5
CE
330
1F
100
AcDbEntity
  8
0
  6
Continuous
 62
     7
 48
50.0
370
    25
100
AcDbLine
 10
8043.9880687749
 20
13829.96525209
 30
0.0
 11
8043.9880687749
 21
13837.9950706249
 31
0.0
  0
LINE
  5
CF
330
1F
100
AcDbEntity
  8
0
  6
Continuous
 62
     7
 48
50.0
370
    25
100
AcDbLine
 10
9173.9880342042
 20
13841.7985622173
 30
0.0
 11
9173.9880342042
 21
14796.8152944332
 31
0.0
  0
LINE
  5
D0
330
1F
100
AcDbEntity
  8
0
  6
Continuous
 62
     7
 48
50.0
370
    25
100
AcDbLine
 10
9174.9880213296
 20
14797.7611009365
 30
0.0
 11
9173.9880342042
 21
14796.8152944332
 31
0.0
  0
LINE
  5
D1
330
1F
100
AcDbEntity
  8
0
  6
Continuous
 62
     7
 48
50.0
370
    25
100
AcDbLine
 10
8053.9880592382
 20
14796.8152944332
 30
0.0
 11
8053.9880592382
 21
13841.7985622173
 31
0.0
  0
LINE
  5
D2
330
1F
100
AcDbEntity
  8
0
  6
Continuous
 62
     7
 48
50.0
370
    25
100
AcDbLine
 10
8053.9880592382
 20
14796.8152944332
 30
0.0
 11
8052.9880125082
 21
14797.7611009365
 31
0.0
  0
LINE
  5
D3
330
1F
100
AcDbEntity
  8
0
  6
Continuous
 62
     7
 48
50.0
370
    25
100
AcDbLine
 10
9173.9880342042
 20
14795.9789220577
 30
0.0
 11
8053.9880592382
 21
14795.9789220577
 31
0.0
  0
LINE
  5
D4
330
1F
100
AcDbEntity
  8
0
  6
Continuous
 62
     7
 48
50.0
370
    25
100
AcDbLine
 10
9183.9880246675
 20
14078.8874809032
 30
0.0
 11
9183.9880246675
 21
14042.6351014858
 31
0.0
  0
LINE
  5
D5
330
1F
100
AcDbEntity
  8
0
  6
Continuous
 62
     7
 48
50.0
370
    25
100
AcDbLine
 10
9183.8880378759
 20
14042.6351014858
 30
0.0
 11
9183.9880246675
 21
14042.6351014858
 31
0.0
  0
LINE
  5
D6
330
1F
100
AcDbEntity
  8
0
  6
Continuous
 62
     7
 48
50.0
370
    25
100
AcDbLine
 10
8043.9880687749
 20
14078.8874809032
 30
0.0
 11
8043.9880687749
 21
14042.6351014858
 31
0.0
  0
LINE
  5
D7
330
1F
100
AcDbEntity
  8
0
  6
Continuous
 62
     7
 48
50.0
370
    25
100
AcDbLine
 10
8044.0879661596
 20
14042.6351014858
 30
0.0
 11
8043.9880687749
 21
14042.6351014858
 31
0.0
  0
LINE
  5
D8
330
1F
100
AcDbEntity
  8
0
  6
Continuous
 62
     7
 48
50.0
370
    25
100
AcDbLine
 10
8043.9880687749
 20
14681.1183873897
 30
0.0
 11
8043.9880687749
 21
14644.8661271816
 31
0.0
  0
LINE
  5
D9
330
1F
100
AcDbEntity
  8
0
  6
Continuous
 62
     7
 48
50.0
370
    25
100
AcDbLine
 10
8044.0879661596
 20
14644.8661271816
 30
0.0
 11
8043.9880687749
 21
14644.8661271816
 31
0.0
  0
LINE
  5
DA
330
1F
100
AcDbEntity
  8
0
  6
Continuous
 62
     7
 48
50.0
370
    25
100
AcDbLine
 10
9183.9880246675
 20
14681.1183873897
 30
0.0
 11
9183.9880246675
 21
14644.8661271816
 31
0.0
  0
LINE
  5
DB
330
1F
100
AcDbEntity
  8
0
  6
Continuous
 62
     7
 48
50.0
370
    25
100
AcDbLine
 10
9183.8880378759
 20
14644.8661271816
 30
0.0
 11
9183.9880246675
 21
14644.8661271816
 31
0.0
  0
LINE
  5
DC
330
1F
100
AcDbEntity
  8
0
  6
Continuous
 62
     7
 48
50.0
370
    25
100
AcDbLine
 10
9173.9880342042
 20
14796.8152944332
 30
0.0
 11
8053.9880592382
 21
14796.8152944332
 31
0.0
  0
LINE
  5
DD
330
1F
100
AcDbEntity
  8
0
  6
Continuous
 62
     7
 48
50.0
370
    25
100
AcDbLine
 10
9202.9880184686
 20
12866.3956705814
 30
0.0
 11
10342.9880339658
 21
12866.3956705814
 31
0.0
  0
LINE
  5
DE
330
1F
100
AcDbEntity
  8
0
  6
Continuous
 62
     7
 48
50.0
370
    25
100
AcDbLine
 10
9202.9880184686
 20
12986.8418757205
 30
0.0
 11
9202.9880184686
 21
12866.3956705814
 31
0.0
  0
LINE
  5
DF
330
1F
100
AcDbEntity
  8
0
  6
Continuous
 62
     7
 48
50.0
370
    25
100
AcDbLine
 10
9203.0880350626
 20
12986.8418757205
 30
0.0
 11
9202.9880184686
 21
12986.8418757205
 31
0.0
  0
LINE
  5
E0
330
1F
100
AcDbEntity
  8
0
  6
Continuous
 62
     7
 48
50.0
370
    25
100
AcDbLine
 10
9203.0880350626
 20
12986.8418757205
 30
0.0
 11
9203.0880350626
 21
13107.2880808597
 31
0.0
  0
LINE
  5
E1
330
1F
100
AcDbEntity
  8
0
  6
Continuous
 62
     7
 48
50.0
370
    25
100
AcDbLine
 10
9203.0880350626
 20
13107.2880808597
 30
0.0
 11
9202.9880184686
 21
13107.2880808597
 31
0.0
  0
LINE
  5
E2
330
1F
100
AcDbEntity
  8
0
  6
Continuous
 62
     7
 48
50.0
370
    25
100
AcDbLine
 10
9202.9880184686
 20
13589.0728418117
 30
0.0
 11
9202.9880184686
 21
13107.2880808597
 31
0.0
  0
LINE
  5
E3
330
1F
100
AcDbEntity
  8
0
  6
Continuous
 62
     7
 48
50.0
370
    25
100
AcDbLine
 10
9203.0880350626
 20
13589.0728418117
 30
0.0
 11
9202.9880184686
 21
13589.0728418117
 31
0.0
  0
LINE
  5
E4
330
1F
100
AcDbEntity
  8
0
  6
Continuous
 62
     7
 48
50.0
370
    25
100
AcDbLine
 10
9203.0880350626
 20
13589.0728418117
 30
0.0
 11
9203.0880350626
 21
13709.5190469509
 31
0.0
  0
LINE
  5
E5
330
1F
100
AcDbEntity
  8
0
  6
Continuous
 62
     7
 48
50.0
370
    25
100
AcDbLine
 10
9203.0880350626
 20
13709.5190469509
 30
0.0
 11
9202.9880184686
 21
13709.5190469509
 31
0.0
  0
LINE
  5
E6
330
1F
100
AcDbEntity
  8
0
  6
Continuous
 62
     7
 48
50.0
370
    25
100
AcDbLine
 10
9202.9880184686
 20
13829.96525209
 30
0.0
 11
9202.9880184686
 21
13709.5190469509
 31
0.0
  0
LINE
  5
E7
330
1F
100
AcDbEntity
  8
0
  6
Continuous
 62
     7
 48
50.0
370
    25
100
AcDbLine
 10
10342.9880339658
 20
13829.96525209
 30
0.0
 11
9202.9880184686
 21
13829.96525209
 31
0.0
  0
LINE
  5
E8
330
1F
100
AcDbEntity
  8
0
  6
Continuous
 62
     7
 48
50.0
370
    25
100
AcDbLine
 10
10342.9880339658
 20
13709.5190469509
 30
0.0
 11
10342.9880339658
 21
13829.96525209
 31
0.0
  0
LINE
  5
E9
330
1F
100
AcDbEntity
  8
0
  6
Continuous
 62
     7
 48
50.0
370
    25
100
AcDbLine
 10
10342.8880173719
 20
13709.5190469509
 30
0.0
 11
10342.9880339658
 21
13709.5190469509
 31
0.0
  0
LINE
  5
EA
330
1F
100
AcDbEntity
  8
0
  6
Continuous
 62
     7
 48
50.0
370
    25
100
AcDbLine
 10
10342.8880173719
 20
13589.0728418117
 30
0.0
 11
10342.8880173719
 21
13709.5190469509
 31
0.0
  0
LINE
  5
EB
330
1F
100
AcDbEntity
  8
0
  6
Continuous
 62
     7
 48
50.0
370
    25
100
AcDbLine
 10
10342.8880173719
 20
13589.0728418117
 30
0.0
 11
10342.9880339658
 21
13589.0728418117
 31
0.0
  0
LINE
  5
EC
330
1F
100
AcDbEntity
  8
0
  6
Continuous
 62
     7
 48
50.0
370
    25
100
AcDbLine
 10
10342.9880339658
 20
13107.2880808597
 30
0.0
 11
10342.9880339658
 21
13589.0728418117
 31
0.0
  0
LINE
  5
ED
330
1F
100
AcDbEntity
  8
0
  6
Continuous
 62
     7
 48
50.0
370
    25
100
AcDbLine
 10
10342.8880173719
 20
13107.2880808597
 30
0.0
 11
10342.9880339658
 21
13107.2880808597
 31
0.0
  0
LINE
  5
EE
330
1F
100
AcDbEntity
  8
0
  6
Continuous
 62
     7
 48
50.0
370
    25
100
AcDbLine
 10
10342.8880173719
 20
12986.8418757205
 30
0.0
 11
10342.8880173719
 21
13107.2880808597
 31
0.0
  0
LINE
  5
EF
330
1F
100
AcDbEntity
  8
0
  6
Continuous
 62
     7
 48
50.0
370
    25
100
AcDbLine
 10
10342.8880173719
 20
12986.8418757205
 30
0.0
 11
10342.9880339658
 21
12986.8418757205
 31
0.0
  0
LINE
  5
F0
330
1F
100
AcDbEntity
  8
0
  6
Continuous
 62
     7
 48
50.0
370
    25
100
AcDbLine
 10
10342.9880339658
 20
12866.3956705814
 30
0.0
 11
10342.9880339658
 21
12986.8418757205
 31
0.0
  0
LINE
  5
F1
330
1F
100
AcDbEntity
  8
0
  6
Continuous
 62
     7
 48
50.0
370
    25
100
AcDbLine
 10
9211.9880218065
 20
13826.1617604976
 30
0.0
 11
10333.988030628
 21
13826.1617604976
 31
0.0
  0
LINE
  5
F2
330
1F
100
AcDbEntity
  8
0
  6
Continuous
 62
     7
 48
50.0
370
    25
100
AcDbLine
 10
9211.9880218065
 20
12870.1992217784
 30
0.0
 11
9211.9880218065
 21
13826.1617604976
 31
0.0
  0
LINE
  5
F3
330
1F
100
AcDbEntity
  8
0
  6
Continuous
 62
     7
 48
50.0
370
    25
100
AcDbLine
 10
10333.988030628
 20
12870.1992217784
 30
0.0
 11
9211.9880218065
 21
12870.1992217784
 31
0.0
  0
LINE
  5
F4
330
1F
100
AcDbEntity
  8
0
  6
Continuous
 62
     7
 48
50.0
370
    25
100
AcDbLine
 10
10333.988030628
 20
13826.1617604976
 30
0.0
 11
10333.988030628
 21
12870.1992217784
 31
0.0
  0
LINE
  5
F5
330
1F
100
AcDbEntity
  8
0
  6
Continuous
 62
     7
 48
50.0
370
    25
100
AcDbLine
 10
10342.9880339658
 20
12830.1433507686
 30
0.0
 11
10342.9880339658
 21
12866.3956705814
 31
0.0
  0
LINE
  5
F6
330
1F
100
AcDbEntity
  8
0
  6
Continuous
 62
     7
 48
50.0
370
    25
100
AcDbLine
 10
9202.9880184686
 20
12830.1433507686
 30
0.0
 11
10342.9880339658
 21
12830.1433507686
 31
0.0
  0
LINE
  5
F7
330
1F
100
AcDbEntity
  8
0
  6
Continuous
 62
     7
 48
50.0
370
    25
100
AcDbLine
 10
9202.9880184686
 20
12830.1433507686
 30
0.0
 11
9202.9880184686
 21
12866.3956705814
 31
0.0
  0
LINE
  5
F8
330
1F
100
AcDbEntity
  8
0
  6
Continuous
 62
     7
 48
50.0
370
    25
100
AcDbLine
 10
10332.9880435026
 20
12870.1992217784
 30
0.0
 11
10332.9880435026
 21
13825.215834785
 31
0.0
  0
LINE
  5
F9
330
1F
100
AcDbEntity
  8
0
  6
Continuous
 62
     7
 48
50.0
370
    25
100
AcDbLine
 10
10333.988030628
 20
13826.1617604976
 30
0.0
 11
10332.9880435026
 21
13825.215834785
 31
0.0
  0
LINE
  5
FA
330
1F
100
AcDbEntity
  8
0
  6
Continuous
 62
     7
 48
50.0
370
    25
100
AcDbLine
 10
9212.9880387342
 20
13825.215834785
 30
0.0
 11
9212.9880387342
 21
12870.1992217784
 31
0.0
  0
LINE
  5
FB
330
1F
100
AcDbEntity
  8
0
  6
Continuous
 62
     7
 48
50.0
370
    25
100
AcDbLine
 10
9212.9880387342
 20
13825.215834785
 30
0.0
 11
9211.9880218065
 21
13826.1617604976
 31
0.0
  0
LINE
  5
FC
330
1F
100
AcDbEntity
  8
0
  6
Continuous
 62
     7
 48
50.0
370
    25
100
AcDbLine
 10
10332.9880435026
 20
13824.3797008281
 30
0.0
 11
9212.9880387342
 21
13824.3797008281
 31
0.0
  0
LINE
  5
FD
330
1F
100
AcDbEntity
  8
0
  6
Continuous
 62
     7
 48
50.0
370
    25
100
AcDbLine
 10
10342.9880339658
 20
13107.2880808597
 30
0.0
 11
10342.9880339658
 21
13071.0357610469
 31
0.0
  0
LINE
  5
FE
330
1F
100
AcDbEntity
  8
0
  6
Continuous
 62
     7
 48
50.0
370
    25
100
AcDbLine
 10
10342.8880173719
 20
13071.0357610469
 30
0.0
 11
10342.9880339658
 21
13071.0357610469
 31
0.0
  0
LINE
  5
FF
330
1F
100
AcDbEntity
  8
0
  6
Continuous
 62
     7
 48
50.0
370
    25
100
AcDbLine
 10
9202.9880184686
 20
13107.2880808597
 30
0.0
 11
9202.9880184686
 21
13071.0357610469
 31
0.0
  0
LINE
  5
100
330
1F
100
AcDbEntity
  8
0
  6
Continuous
 62
     7
 48
50.0
370
    25
100
AcDbLine
 10
9203.0880350626
 20
13071.0357610469
 30
0.0
 11
9202.9880184686
 21
13071.0357610469
 31
0.0
  0
LINE
  5
101
330
1F
100
AcDbEntity
  8
0
  6
Continuous
 62
     7
 48
50.0
370
    25
100
AcDbLine
 10
9202.9880184686
 20
13709.5190469509
 30
0.0
 11
9202.9880184686
 21
13673.2667867427
 31
0.0
  0
LINE
  5
102
330
1F
100
AcDbEntity
  8
0
  6
Continuous
 62
     7
 48
50.0
370
    25
100
AcDbLine
 10
9203.0880350626
 20
13673.2667867427
 30
0.0
 11
9202.9880184686
 21
13673.2667867427
 31
0.0
  0
LINE
  5
103
330
1F
100
AcDbEntity
  8
0
  6
Continuous
 62
     7
 48
50.0
370
    25
100
AcDbLine
 10
10342.9880339658
 20
13709.5190469509
 30
0.0
 11
10342.9880339658
 21
13673.2667867427
 31
0.0
  0
LINE
  5
104
330
1F
100
AcDbEntity
  8
0
  6
Continuous
 62
     7
 48
50.0
370
    25
100
AcDbLine
 10
10342.8880173719
 20
13673.2667867427
 30
0.0
 11
10342.9880339658
 21
13673.2667867427
 31
0.0
  0
LINE
  5
105
330
1F
100
AcDbEntity
  8
0
  6
Continuous
 62
     7
 48
50.0
370
    25
100
AcDbLine
 10
10332.9880435026
 20
13825.215834785
 30
0.0
 11
9212.9880387342
 21
13825.215834785
 31
0.0
  0
LINE
  5
106
330
1F
100
AcDbEntity
  8
0
  6
Continuous
 62
     7
 48
50.0
370
    25
100
AcDbLine
 10
8043.9880687749
 20
12866.3956705814
 30
0.0
 11
9183.9880246675
 21
12866.3956705814
 31
0.0
  0
LINE
  5
107
330
1F
100
AcDbEntity
  8
0
  6
Continuous
 62
     7
 48
50.0
370
    25
100
AcDbLine
 10
8043.9880687749
 20
12986.8418757205
 30
0.0
 11
8043.9880687749
 21
12866.3956705814
 31
0.0
  0
LINE
  5
108
330
1F
100
AcDbEntity
  8
0
  6
Continuous
 62
     7
 48
50.0
370
    25
100
AcDbLine
 10
8044.0879661596
 20
12986.8418757205
 30
0.0
 11
8043.9880687749
 21
12986.8418757205
 31
0.0
  0
LINE
  5
109
330
1F
100
AcDbEntity
  8
0
  6
Continuous
 62
     7
 48
50.0
370
    25
100
AcDbLine
 10
8044.0879661596
 20
12986.8418757205
 30
0.0
 11
8044.0879661596
 21
13107.2880808597
 31
0.0
  0
LINE
  5
10A
330
1F
100
AcDbEntity
  8
0
  6
Continuous
 62
     7
 48
50.0
370
    25
100
AcDbLine
 10
8044.0879661596
 20
13107.2880808597
 30
0.0
 11
8043.9880687749
 21
13107.2880808597
 31
0.0
  0
LINE
  5
10B
330
1F
100
AcDbEntity
  8
0
  6
Continuous
 62
     7
 48
50.0
370
    25
100
AcDbLine
 10
8043.9880687749
 20
13589.0728418117
 30
0.0
 11
8043.9880687749
 21
13107.2880808597
 31
0.0
  0
LINE
  5
10C
330
1F
100
AcDbEntity
  8
0
  6
Continuous
 62
     7
 48
50.0
370
    25
100
AcDbLine
 10
8044.0879661596
 20
13589.0728418117
 30
0.0
 11
8043.9880687749
 21
13589.0728418117
 31
0.0
  0
LINE
  5
10D
330
1F
100
AcDbEntity
  8
0
  6
Continuous
 62
     7
 48
50.0
370
    25
100
AcDbLine
 10
8044.0879661596
 20
13589.0728418117
 30
0.0
 11
8044.0879661596
 21
13709.5190469509
 31
0.0
  0
LINE
  5
10E
330
1F
100
AcDbEntity
  8
0
  6
Continuous
 62
     7
 48
50.0
370
    25
100
AcDbLine
 10
8044.0879661596
 20
13709.5190469509
 30
0.0
 11
8043.9880687749
 21
13709.5190469509
 31
0.0
  0
LINE
  5
10F
330
1F
100
AcDbEntity
  8
0
  6
Continuous
 62
     7
 48
50.0
370
    25
100
AcDbLine
 10
8043.9880687749
 20
13829.96525209
 30
0.0
 11
8043.9880687749
 21
13709.5190469509
 31
0.0
  0
LINE
  5
110
330
1F
100
AcDbEntity
  8
0
  6
Continuous
 62
     7
 48
50.0
370
    25
100
AcDbLine
 10
9183.9880246675
 20
13829.96525209
 30
0.0
 11
8043.9880687749
 21
13829.96525209
 31
0.0
  0
LINE
  5
111
330
1F
100
AcDbEntity
  8
0
  6
Continuous
 62
     7
 48
50.0
370
    25
100
AcDbLine
 10
9183.9880246675
 20
13709.5190469509
 30
0.0
 11
9183.9880246675
 21
13829.96525209
 31
0.0
  0
LINE
  5
112
330
1F
100
AcDbEntity
  8
0
  6
Continuous
 62
     7
 48
50.0
370
    25
100
AcDbLine
 10
9183.8880378759
 20
13709.5190469509
 30
0.0
 11
9183.9880246675
 21
13709.5190469509
 31
0.0
  0
LINE
  5
113
330
1F
100
AcDbEntity
  8
0
  6
Continuous
 62
     7
 48
50.0
370
    25
100
AcDbLine
 10
9183.8880378759
 20
13589.0728418117
 30
0.0
 11
9183.8880378759
 21
13709.5190469509
 31
0.0
  0
LINE
  5
114
330
1F
100
AcDbEntity
  8
0
  6
Continuous
 62
     7
 48
50.0
370
    25
100
AcDbLine
 10
9183.8880378759
 20
13589.0728418117
 30
0.0
 11
9183.9880246675
 21
13589.0728418117
 31
0.0
  0
LINE
  5
115
330
1F
100
AcDbEntity
  8
0
  6
Continuous
 62
     7
 48
50.0
370
    25
100
AcDbLine
 10
9183.9880246675
 20
13107.2880808597
 30
0.0
 11
9183.9880246675
 21
13589.0728418117
 31
0.0
  0
LINE
  5
116
330
1F
100
AcDbEntity
  8
0
  6
Continuous
 62
     7
 48
50.0
370
    25
100
AcDbLine
 10
9183.8880378759
 20
13107.2880808597
 30
0.0
 11
9183.9880246675
 21
13107.2880808597
 31
0.0
  0
LINE
  5
117
330
1F
100
AcDbEntity
  8
0
  6
Continuous
 62
     7
 48
50.0
370
    25
100
AcDbLine
 10
9183.8880378759
 20
12986.8418757205
 30
0.0
 11
9183.8880378759
 21
13107.2880808597
 31
0.0
  0
LINE
  5
118
330
1F
100
AcDbEntity
  8
0
  6
Continuous
 62
     7
 48
50.0
370
    25
100
AcDbLine
 10
9183.8880378759
 20
12986.8418757205
 30
0.0
 11
9183.9880246675
 21
12986.8418757205
 31
0.0
  0
LINE
  5
119
330
1F
100
AcDbEntity
  8
0
  6
Continuous
 62
     7
 48
50.0
370
    25
100
AcDbLine
 10
9183.9880246675
 20
12866.3956705814
 30
0.0
 11
9183.9880246675
 21
12986.8418757205
 31
0.0
  0
LINE
  5
11A
330
1F
100
AcDbEntity
  8
0
  6
Continuous
 62
     7
 48
50.0
370
    25
100
AcDbLine
 10
8052.9880125082
 20
13826.1617604976
 30
0.0
 11
9174.9880213296
 21
13826.1617604976
 31
0.0
  0
LINE
  5
11B
330
1F
100
AcDbEntity
  8
0
  6
Continuous
 62
     7
 48
50.0
370
    25
100
AcDbLine
 10
8052.9880125082
 20
12870.1992217784
 30
0.0
 11
8052.9880125082
 21
13826.1617604976
 31
0.0
  0
LINE
  5
11C
330
1F
100
AcDbEntity
  8
0
  6
Continuous
 62
     7
 48
50.0
370
    25
100
AcDbLine
 10
9174.9880213296
 20
12870.1992217784
 30
0.0
 11
8052.9880125082
 21
12870.1992217784
 31
0.0
  0
LINE
  5
11D
330
1F
100
AcDbEntity
  8
0
  6
Continuous
 62
     7
 48
50.0
370
    25
100
AcDbLine
 10
9174.9880213296
 20
13826.1617604976
 30
0.0
 11
9174.9880213296
 21
12870.1992217784
 31
0.0
  0
LINE
  5
11E
330
1F
100
AcDbEntity
  8
0
  6
Continuous
 62
     7
 48
50.0
370
    25
100
AcDbLine
 10
9183.9880246675
 20
12830.1433507686
 30
0.0
 11
9183.9880246675
 21
12866.3956705814
 31
0.0
  0
LINE
  5
11F
330
1F
100
AcDbEntity
  8
0
  6
Continuous
 62
     7
 48
50.0
370
    25
100
AcDbLine
 10
8043.9880687749
 20
12830.1433507686
 30
0.0
 11
9183.9880246675
 21
12830.1433507686
 31
0.0
  0
LINE
  5
120
330
1F
100
AcDbEntity
  8
0
  6
Continuous
 62
     7
 48
50.0
370
    25
100
AcDbLine
 10
8043.9880687749
 20
12830.1433507686
 30
0.0
 11
8043.9880687749
 21
12866.3956705814
 31
0.0
  0
LINE
  5
121
330
1F
100
AcDbEntity
  8
0
  6
Continuous
 62
     7
 48
50.0
370
    25
100
AcDbLine
 10
9173.9880342042
 20
12870.1992217784
 30
0.0
 11
9173.9880342042
 21
13825.215834785
 31
0.0
  0
LINE
  5
122
330
1F
100
AcDbEntity
  8
0
  6
Continuous
 62
     7
 48
50.0
370
    25
100
AcDbLine
 10
9174.9880213296
 20
13826.1617604976
 30
0.0
 11
9173.9880342042
 21
13825.215834785
 31
0.0
  0
LINE
  5
123
330
1F
100
AcDbEntity
  8
0
  6
Continuous
 62
     7
 48
50.0
370
    25
100
AcDbLine
 10
8053.9880592382
 20
13825.215834785
 30
0.0
 11
8053.9880592382
 21
12870.1992217784
 31
0.0
  0
LINE
  5
124
330
1F
100
AcDbEntity
  8
0
  6
Continuous
 62
     7
 48
50.0
370
    25
100
AcDbLine
 10
8053.9880592382
 20
13825.215834785
 30
0.0
 11
8052.9880125082
 21
13826.1617604976
 31
0.0
  0
LINE
  5
125
330
1F
100
AcDbEntity
  8
0
  6
Continuous
 62
     7
 48
50.0
370
    25
100
AcDbLine
 10
9173.9880342042
 20
13824.3797008281
 30
0.0
 11
8053.9880592382
 21
13824.3797008281
 31
0.0
  0
LINE
  5
126
330
1F
100
AcDbEntity
  8
0
  6
Continuous
 62
     7
 48
50.0
370
    25
100
AcDbLine
 10
9183.9880246675
 20
13107.2880808597
 30
0.0
 11
9183.9880246675
 21
13071.0357610469
 31
0.0
  0
LINE
  5
127
330
1F
100
AcDbEntity
  8
0
  6
Continuous
 62
     7
 48
50.0
370
    25
100
AcDbLine
 10
9183.8880378759
 20
13071.0357610469
 30
0.0
 11
9183.9880246675
 21
13071.0357610469
 31
0.0
  0
LINE
  5
128
330
1F
100
AcDbEntity
  8
0
  6
Continuous
 62
     7
 48
50.0
370
    25
100
AcDbLine
 10
8043.9880687749
 20
13107.2880808597
 30
0.0
 11
8043.9880687749
 21
13071.0357610469
 31
0.0
  0
LINE
  5
129
330
1F
100
AcDbEntity
  8
0
  6
Continuous
 62
     7
 48
50.0
370
    25
100
AcDbLine
 10
8044.0879661596
 20
13071.0357610469
 30
0.0
 11
8043.9880687749
 21
13071.0357610469
 31
0.0
  0
LINE
  5
12A
330
1F
100
AcDbEntity
  8
0
  6
Continuous
 62
     7
 48
50.0
370
    25
100
AcDbLine
 10
8043.9880687749
 20
13709.5190469509
 30
0.0
 11
8043.9880687749
 21
13673.2667867427
 31
0.0
  0
LINE
  5
12B
330
1F
100
AcDbEntity
  8
0
  6
Continuous
 62
     7
 48
50.0
370
    25
100
AcDbLine
 10
8044.0879661596
 20
13673.2667867427
 30
0.0
 11
8043.9880687749
 21
13673.2667867427
 31
0.0
  0
LINE
  5
12C
330
1F
100
AcDbEntity
  8
0
  6
Continuous
 62
     7
 48
50.0
370
    25
100
AcDbLine
 10
9183.9880246675
 20
13709.5190469509
 30
0.0
 11
9183.9880246675
 21
13673.2667867427
 31
0.0
  0
LINE
  5
12D
330
1F
100
AcDbEntity
  8
0
  6
Continuous
 62
     7
 48
50.0
370
    25
100
AcDbLine
 10
9183.8880378759
 20
13673.2667867427
 30
0.0
 11
9183.9880246675
 21
13673.2667867427
 31
0.0
  0
LINE
  5
12E
330
1F
100
AcDbEntity
  8
0
  6
Continuous
 62
     7
 48
50.0
370
    25
100
AcDbLine
 10
9173.9880342042
 20
13825.215834785
 30
0.0
 11
8053.9880592382
 21
13825.215834785
 31
0.0
  0
LINE
  5
12F
330
1F
100
AcDbEntity
  8
0
  6
Continuous
 62
     7
 48
50.0
370
    25
100
AcDbLine
 10
10182.791491226
 20
12775.5425755268
 30
0.0
 11
10194.1845614469
 21
12775.5425755268
 31
0.0
  0
LINE
  5
130
330
1F
100
AcDbEntity
  8
0
  6
Continuous
 62
     7
 48
50.0
370
    25
100
AcDbLine
 10
8312.7914268529
 20
12775.5425755268
 30
0.0
 11
8324.1846162832
 21
12775.5425755268
 31
0.0
  0
LINE
  5
131
330
1F
100
AcDbEntity
  8
0
  6
Continuous
 62
     7
 48
50.0
370
    25
100
AcDbLine
 10
8008.4880191839
 20
13924.9334518199
 30
0.0
 11
8008.4880191839
 21
13929.5847598796
 31
0.0
  0
LINE
  5
132
330
1F
100
AcDbEntity
  8
0
  6
Continuous
 62
     7
 48
50.0
370
    25
100
AcDbLine
 10
10378.4880239523
 20
13929.5847598796
 30
0.0
 11
10378.4880239523
 21
13924.9334518199
 31
0.0
  0
LWPOLYLINE
  5
133
330
1F
100
AcDbEntity
  8
0
  6
Continuous
 62
     7
 48
50.0
370
    25
100
AcDbPolyline
 90
       28
 70
   128
 43
0.0
 10
8039.9880010641
 20
13860.132474113
 10
8039.8127634084
 20
13861.491102386
 10
8039.2965871847
 20
13862.776416946
 10
8038.4673673666
 20
13863.9191571956
 10
8037.3695690191
 20
13864.8578111415
 10
8036.0625583684
 20
13865.5417148357
 10
8034.6167881048
 20
13865.9340326076
 10
8033.1101018941
 20
13866.0135452037
 10
8031.623800472
 20
13865.7759610897
 10
8030.237992481
 20
13865.2342740779
 10
8029.0274221456
 20
13864.4174520259
 10
8028.0572969472
 20
13863.3696023708
 10
8027.3800689733
 20
13862.147349525
 10
8027.0319778478
 20
13860.8163778072
 10
8027.0319778478
 20
13859.4485704189
 10
8027.3800689733
 20
13858.1177179103
 10
8028.0572969472
 20
13856.8953458553
 10
8029.0274221456
 20
13855.8474962001
 10
8030.237992481
 20
13855.0307933574
 10
8031.623800472
 20
13854.4889871364
 10
8033.1101018941
 20
13854.2515222316
 10
8034.6167881048
 20
13854.3310348278
 10
8036.0625583684
 20
13854.7232333904
 10
8037.3695690191
 20
13855.4071370845
 10
8038.4673673666
 20
13856.3457910304
 10
8039.2965871847
 20
13857.4886504894
 10
8039.8127634084
 20
13858.7739650493
 10
8039.9880010641
 20
13860.132474113
  0
LWPOLYLINE
  5
134
330
1F
100
AcDbEntity
  8
0
  6
Continuous
 62
     7
 48
50.0
370
    25
100
AcDbPolyline
 90
       28
 70
   128
 43
0.0
 10
10346.9880420721
 20
13905.4478589778
 10
10347.1632201231
 20
13904.0893499141
 10
10347.6793963468
 20
13902.8040353542
 10
10348.5087353742
 20
13901.6611758953
 10
10349.606474117
 20
13900.7226411586
 10
10350.9134847677
 20
13900.0387374645
 10
10352.359314636
 20
13899.6464196926
 10
10353.865941242
 20
13899.5669070964
 10
10355.3522426641
 20
13899.8043720012
 10
10356.7380506551
 20
13900.3461782222
 10
10357.9486209905
 20
13901.1628810649
 10
10358.9186865842
 20
13902.2107307201
 10
10359.5960337675
 20
13903.4331027751
 10
10359.9440652883
 20
13904.7639552837
 10
10359.9440652883
 20
13906.131762672
 10
10359.5960337675
 20
13907.4627343898
 10
10358.9186865842
 20
13908.6851064449
 10
10357.9486209905
 20
13909.7328368907
 10
10356.7380506551
 20
13910.5496589427
 10
10355.3522426641
 20
13911.0914651638
 10
10353.865941242
 20
13911.3289300685
 10
10352.359314636
 20
13911.2494174724
 10
10350.9134847677
 20
13910.8570997005
 10
10349.606474117
 20
13910.1731960063
 10
10348.5087353742
 20
13909.2345420604
 10
10347.6793963468
 20
13908.0918018108
 10
10347.1632201231
 20
13906.8064872508
 10
10346.9880420721
 20
13905.4478589778
  0
LWPOLYLINE
  5
135
330
1F
100
AcDbEntity
  8
0
  6
Continuous
 62
     7
 48
50.0
370
    25
100
AcDbPolyline
 90
       28
 70
   128
 43
0.0
 10
10346.9880420721
 20
13860.132474113
 10
10347.1632201231
 20
13858.7739650493
 10
10347.6793963468
 20
13857.4886504894
 10
10348.5087353742
 20
13856.3457910304
 10
10349.606474117
 20
13855.4071370845
 10
10350.9134847677
 20
13854.7232333904
 10
10352.359314636
 20
13854.3310348278
 10
10353.865941242
 20
13854.2515222316
 10
10355.3522426641
 20
13854.4889871364
 10
10356.7380506551
 20
13855.0307933574
 10
10357.9486209905
 20
13855.8474962001
 10
10358.9186865842
 20
13856.8953458553
 10
10359.5960337675
 20
13858.1177179103
 10
10359.9440652883
 20
13859.4485704189
 10
10359.9440652883
 20
13860.8163778072
 10
10359.5960337675
 20
13862.147349525
 10
10358.9186865842
 20
13863.3696023708
 10
10357.9486209905
 20
13864.4174520259
 10
10356.7380506551
 20
13865.2342740779
 10
10355.3522426641
 20
13865.7759610897
 10
10353.865941242
 20
13866.0135452037
 10
10352.359314636
 20
13865.9340326076
 10
10350.9134847677
 20
13865.5417148357
 10
10349.606474117
 20
13864.8578111415
 10
10348.5087353742
 20
13863.9191571956
 10
10347.6793963468
 20
13862.776416946
 10
10347.1632201231
 20
13861.491102386
 10
10346.9880420721
 20
13860.132474113
  0
LWPOLYLINE
  5
136
330
1F
100
AcDbEntity
  8
0
  6
Continuous
 62
     7
 48
50.0
370
    25
100
AcDbPolyline
 90
       28
 70
   128
 43
0.0
 10
8039.9880010641
 20
13905.4478589778
 10
8039.8127634084
 20
13906.8064872508
 10
8039.2965871847
 20
13908.0918018108
 10
8038.4673673666
 20
13909.2345420604
 10
8037.3695690191
 20
13910.1731960063
 10
8036.0625583684
 20
13910.8570997005
 10
8034.6167881048
 20
13911.2494174724
 10
8033.1101018941
 20
13911.3289300685
 10
8031.623800472
 20
13911.0914651638
 10
8030.237992481
 20
13910.5496589427
 10
8029.0274221456
 20
13909.7328368907
 10
8028.0572969472
 20
13908.6851064449
 10
8027.3800689733
 20
13907.4627343898
 10
8027.0319778478
 20
13906.131762672
 10
8027.0319778478
 20
13904.7639552837
 10
8027.3800689733
 20
13903.4331027751
 10
8028.0572969472
 20
13902.2107307201
 10
8029.0274221456
 20
13901.1628810649
 10
8030.237992481
 20
13900.3461782222
 10
8031.623800472
 20
13899.8043720012
 10
8033.1101018941
 20
13899.5669070964
 10
8034.6167881048
 20
13899.6464196926
 10
8036.0625583684
 20
13900.0387374645
 10
8037.3695690191
 20
13900.7226411586
 10
8038.4673673666
 20
13901.6611758953
 10
8039.2965871847
 20
13902.8040353542
 10
8039.8127634084
 20
13904.0893499141
 10
8039.9880010641
 20
13905.4478589778
  0
LINE
  5
137
330
1F
100
AcDbEntity
  8
0
  6
Continuous
 62
     7
 48
50.0
370
    25
100
AcDbLine
 10
8008.4880191839
 20
13924.9334518199
 30
0.0
 11
8008.4880191839
 21
13840.6468812709
 31
0.0
  0
LINE
  5
138
330
1F
100
AcDbEntity
  8
0
  6
Continuous
 62
     7
 48
50.0
370
    25
100
AcDbLine
 10
10378.4880239523
 20
13924.9334518199
 30
0.0
 11
10378.4880239523
 21
13840.6468812709
 31
0.0
  0
LINE
  5
139
330
1F
100
AcDbEntity
  8
0
  6
Continuous
 62
     7
 48
50.0
370
    25
100
AcDbLine
 10
8008.4880191839
 20
13947.7573816066
 30
0.0
 11
8008.4880191839
 21
13929.5847598796
 31
0.0
  0
LINE
  5
13A
330
1F
100
AcDbEntity
  8
0
  6
Continuous
 62
     7
 48
50.0
370
    25
100
AcDbLine
 10
10378.4880239523
 20
13947.7573816066
 30
0.0
 11
10378.4880239523
 21
13929.5847598796
 31
0.0
  0
LINE
  5
13B
330
1F
100
AcDbEntity
  8
0
  6
Continuous
 62
     7
 48
50.0
370
    25
100
AcDbLine
 10
9202.9880184686
 20
13941.4180700069
 30
0.0
 11
9183.9880246675
 21
13941.4180700069
 31
0.0
  0
LINE
  5
13C
330
1F
100
AcDbEntity
  8
0
  6
Continuous
 62
     7
 48
50.0
370
    25
100
AcDbLine
 10
9183.9880246675
 20
13935.9240714794
 30
0.0
 11
9202.9880184686
 21
13935.9240714794
 31
0.0
  0
LWPOLYLINE
  5
13D
330
1F
100
AcDbEntity
  8
0
  6
Continuous
 62
     7
 48
50.0
370
    25
100
AcDbPolyline
 90
       15
 70
   128
 43
0.0
 10
10346.9974596059
 20
13905.7648364788
 10
10347.1632201231
 20
13904.7233049159
 10
10347.6793963468
 20
13903.437990356
 10
10348.5087353742
 20
13902.2951308971
 10
10349.606474117
 20
13901.3564769512
 10
10350.9134847677
 20
13900.672573257
 10
10352.359314636
 20
13900.2803746944
 10
10353.865941242
 20
13900.200742889
 10
10355.3522426641
 20
13900.438327003
 10
10356.7380506551
 20
13900.9800140148
 10
10357.9486209905
 20
13901.7968360668
 10
10358.9186865842
 20
13902.8446857219
 10
10359.5960337675
 20
13904.0669385677
 10
10359.9440652883
 20
13905.3979102855
 10
10359.9786359823
 20
13905.7648364788
  0
LWPOLYLINE
  5
13E
330
1F
100
AcDbEntity
  8
0
  6
Continuous
 62
     7
 48
50.0
370
    25
100
AcDbPolyline
 90
       15
 70
   128
 43
0.0
 10
8026.9974071538
 20
13905.7648364788
 10
8027.0319778478
 20
13905.3979102855
 10
8027.3800689733
 20
13904.0669385677
 10
8028.0572969472
 20
13902.8446857219
 10
8029.0274221456
 20
13901.7968360668
 10
8030.237992481
 20
13900.9800140148
 10
8031.623800472
 20
13900.438327003
 10
8033.1101018941
 20
13900.200742889
 10
8034.6167881048
 20
13900.2803746944
 10
8036.0625583684
 20
13900.672573257
 10
8037.3695690191
 20
13901.3564769512
 10
8038.4673673666
 20
13902.2951308971
 10
8039.2965871847
 20
13903.437990356
 10
8039.8127634084
 20
13904.7233049159
 10
8039.9785835302
 20
13905.7648364788
  0
LINE
  5
13F
330
1F
100
AcDbEntity
  8
0
  6
Continuous
 62
     7
 48
50.0
370
    25
100
AcDbLine
 10
9202.9880184686
 20
13940.0586072689
 30
0.0
 11
9183.9880246675
 21
13940.0586072689
 31
0.0
  0
LWPOLYLINE
  5
140
330
1F
100
AcDbEntity
  8
0
  6
Continuous
 62
     7
 48
50.0
370
    25
100
AcDbPolyline
 90
       15
 70
   128
 43
0.0
 10
10346.9974596059
 20
13860.4494516139
 10
10347.1632201231
 20
13859.4079200511
 10
10347.6793963468
 20
13858.1226054912
 10
10348.5087353742
 20
13856.9797460323
 10
10349.606474117
 20
13856.0410920864
 10
10350.9134847677
 20
13855.3571883922
 10
10352.359314636
 20
13854.9648706203
 10
10353.865941242
 20
13854.8853580242
 10
10355.3522426641
 20
13855.1229421382
 10
10356.7380506551
 20
13855.66462915
 10
10357.9486209905
 20
13856.481451202
 10
10358.9186865842
 20
13857.5293008571
 10
10359.5960337675
 20
13858.7515537029
 10
10359.9440652883
 20
13860.0825254207
 10
10359.9786359823
 20
13860.4494516139
  0
LWPOLYLINE
  5
141
330
1F
100
AcDbEntity
  8
0
  6
Continuous
 62
     7
 48
50.0
370
    25
100
AcDbPolyline
 90
       15
 70
   128
 43
0.0
 10
8026.9974071538
 20
13860.4494516139
 10
8027.0319778478
 20
13860.0825254207
 10
8027.3800689733
 20
13858.7515537029
 10
8028.0572969472
 20
13857.5293008571
 10
8029.0274221456
 20
13856.481451202
 10
8030.237992481
 20
13855.66462915
 10
8031.623800472
 20
13855.1229421382
 10
8033.1101018941
 20
13854.8853580242
 10
8034.6167881048
 20
13854.9648706203
 10
8036.0625583684
 20
13855.3571883922
 10
8037.3695690191
 20
13856.0410920864
 10
8038.4673673666
 20
13856.9797460323
 10
8039.2965871847
 20
13858.1226054912
 10
8039.8127634084
 20
13859.4079200511
 10
8039.9785835302
 20
13860.4494516139
  0
LINE
  5
142
330
1F
100
AcDbEntity
  8
0
  6
Continuous
 62
     7
 48
50.0
370
    25
100
AcDbLine
 10
10378.4880239523
 20
13840.6468812709
 30
0.0
 11
10378.4880239523
 21
13838.6260453945
 31
0.0
  0
LINE
  5
143
330
1F
100
AcDbEntity
  8
0
  6
Continuous
 62
     7
 48
50.0
370
    25
100
AcDbLine
 10
8008.4880191839
 20
13838.6260453945
 30
0.0
 11
8008.4880191839
 21
13840.6468812709
 31
0.0
  0
LINE
  5
144
330
1F
100
AcDbEntity
  8
0
  6
Continuous
 62
     7
 48
50.0
370
    25
100
AcDbLine
 10
10378.4880239523
 20
13948.0852071529
 30
0.0
 11
10378.4880239523
 21
13947.7573816066
 31
0.0
  0
LINE
  5
145
330
1F
100
AcDbEntity
  8
0
  6
Continuous
 62
     7
 48
50.0
370
    25
100
AcDbLine
 10
8008.4880191839
 20
13948.0852071529
 30
0.0
 11
8008.4880191839
 21
13947.7573816066
 31
0.0
  0
LINE
  5
146
330
1F
100
AcDbEntity
  8
0
  6
Continuous
 62
     7
 48
50.0
370
    25
100
AcDbLine
 10
8008.4880191839
 20
13029.4054333454
 30
0.0
 11
8008.4880191839
 21
13034.0566818004
 31
0.0
  0
LINE
  5
147
330
1F
100
AcDbEntity
  8
0
  6
Continuous
 62
     7
 48
50.0
370
    25
100
AcDbLine
 10
10378.4880239523
 20
13034.0566818004
 30
0.0
 11
10378.4880239523
 21
13029.4054333454
 31
0.0
  0
LWPOLYLINE
  5
148
330
1F
100
AcDbEntity
  8
0
  6
Continuous
 62
     7
 48
50.0
370
    25
100
AcDbPolyline
 90
       28
 70
   128
 43
0.0
 10
8039.9880010641
 20
12964.6043960338
 10
8039.8127634084
 20
12965.9629647022
 10
8039.2965871847
 20
12967.2482792621
 10
8038.4673673666
 20
12968.3910791164
 10
8037.3695690191
 20
12969.3297330623
 10
8036.0625583684
 20
12970.0136367565
 10
8034.6167881048
 20
12970.4058949237
 10
8033.1101018941
 20
12970.4854671245
 10
8031.623800472
 20
12970.2479426151
 10
8030.237992481
 20
12969.7061363941
 10
8029.0274221456
 20
12968.8893739467
 10
8028.0572969472
 20
12967.8415838962
 10
8027.3800689733
 20
12966.6192714458
 10
8027.0319778478
 20
12965.288299728
 10
8027.0319778478
 20
12963.9204923397
 10
8027.3800689733
 20
12962.5895802265
 10
8028.0572969472
 20
12961.3672677761
 10
8029.0274221456
 20
12960.3194181209
 10
8030.237992481
 20
12959.5026556735
 10
8031.623800472
 20
12958.9609090572
 10
8033.1101018941
 20
12958.7233845478
 10
8034.6167881048
 20
12958.8028971439
 10
8036.0625583684
 20
12959.1952149158
 10
8037.3695690191
 20
12959.8791186099
 10
8038.4673673666
 20
12960.8177725559
 10
8039.2965871847
 20
12961.9605128055
 10
8039.8127634084
 20
12963.2458273654
 10
8039.9880010641
 20
12964.6043960338
  0
LWPOLYLINE
  5
149
330
1F
100
AcDbEntity
  8
0
  6
Continuous
 62
     7
 48
50.0
370
    25
100
AcDbPolyline
 90
       28
 70
   128
 43
0.0
 10
10346.9880420721
 20
13009.9197808986
 10
10347.1632201231
 20
13008.5612122302
 10
10347.6793963468
 20
13007.2758976703
 10
10348.5087353742
 20
13006.1331574207
 10
10349.606474117
 20
13005.1945034748
 10
10350.9134847677
 20
13004.5105997806
 10
10352.359314636
 20
13004.1182820087
 10
10353.865941242
 20
13004.0387694126
 10
10355.3522426641
 20
13004.276293922
 10
10356.7380506551
 20
13004.8180405384
 10
10357.9486209905
 20
13005.6348625904
 10
10358.9186865842
 20
13006.6826526409
 10
10359.5960337675
 20
13007.9049650913
 10
10359.9440652883
 20
13009.2358772045
 10
10359.9440652883
 20
13010.6036845928
 10
10359.5960337675
 20
13011.9346563106
 10
10358.9186865842
 20
13013.156968761
 10
10357.9486209905
 20
13014.2047588115
 10
10356.7380506551
 20
13015.0215212589
 10
10355.3522426641
 20
13015.5633274799
 10
10353.865941242
 20
13015.8008519893
 10
10352.359314636
 20
13015.7212797885
 10
10350.9134847677
 20
13015.3290216213
 10
10349.606474117
 20
13014.6451179271
 10
10348.5087353742
 20
13013.7064639812
 10
10347.6793963468
 20
13012.5636641269
 10
10347.1632201231
 20
13011.278349567
 10
10346.9880420721
 20
13009.9197808986
  0
LWPOLYLINE
  5
14A
330
1F
100
AcDbEntity
  8
0
  6
Continuous
 62
     7
 48
50.0
370
    25
100
AcDbPolyline
 90
       28
 70
   128
 43
0.0
 10
10346.9880420721
 20
12964.6043960338
 10
10347.1632201231
 20
12963.2458273654
 10
10347.6793963468
 20
12961.9605128055
 10
10348.5087353742
 20
12960.8177725559
 10
10349.606474117
 20
12959.8791186099
 10
10350.9134847677
 20
12959.1952149158
 10
10352.359314636
 20
12958.8028971439
 10
10353.865941242
 20
12958.7233845478
 10
10355.3522426641
 20
12958.9609090572
 10
10356.7380506551
 20
12959.5026556735
 10
10357.9486209905
 20
12960.3194181209
 10
10358.9186865842
 20
12961.3672677761
 10
10359.5960337675
 20
12962.5895802265
 10
10359.9440652883
 20
12963.9204923397
 10
10359.9440652883
 20
12965.288299728
 10
10359.5960337675
 20
12966.6192714458
 10
10358.9186865842
 20
12967.8415838962
 10
10357.9486209905
 20
12968.8893739467
 10
10356.7380506551
 20
12969.7061363941
 10
10355.3522426641
 20
12970.2479426151
 10
10353.865941242
 20
12970.4854671245
 10
10352.359314636
 20
12970.4058949237
 10
10350.9134847677
 20
12970.0136367565
 10
10349.606474117
 20
12969.3297330623
 10
10348.5087353742
 20
12968.3910791164
 10
10347.6793963468
 20
12967.2482792621
 10
10347.1632201231
 20
12965.9629647022
 10
10346.9880420721
 20
12964.6043960338
  0
LWPOLYLINE
  5
14B
330
1F
100
AcDbEntity
  8
0
  6
Continuous
 62
     7
 48
50.0
370
    25
100
AcDbPolyline
 90
       28
 70
   128
 43
0.0
 10
8039.9880010641
 20
13009.9197808986
 10
8039.8127634084
 20
13011.278349567
 10
8039.2965871847
 20
13012.5636641269
 10
8038.4673673666
 20
13013.7064639812
 10
8037.3695690191
 20
13014.6451179271
 10
8036.0625583684
 20
13015.3290216213
 10
8034.6167881048
 20
13015.7212797885
 10
8033.1101018941
 20
13015.8008519893
 10
8031.623800472
 20
13015.5633274799
 10
8030.237992481
 20
13015.0215212589
 10
8029.0274221456
 20
13014.2047588115
 10
8028.0572969472
 20
13013.156968761
 10
8027.3800689733
 20
13011.9346563106
 10
8027.0319778478
 20
13010.6036845928
 10
8027.0319778478
 20
13009.2358772045
 10
8027.3800689733
 20
13007.9049650913
 10
8028.0572969472
 20
13006.6826526409
 10
8029.0274221456
 20
13005.6348625904
 10
8030.237992481
 20
13004.8180405384
 10
8031.623800472
 20
13004.276293922
 10
8033.1101018941
 20
13004.0387694126
 10
8034.6167881048
 20
13004.1182820087
 10
8036.0625583684
 20
13004.5105997806
 10
8037.3695690191
 20
13005.1945034748
 10
8038.4673673666
 20
13006.1331574207
 10
8039.2965871847
 20
13007.2758976703
 10
8039.8127634084
 20
13008.5612122302
 10
8039.9880010641
 20
13009.9197808986
  0
LINE
  5
14C
330
1F
100
AcDbEntity
  8
0
  6
Continuous
 62
     7
 48
50.0
370
    25
100
AcDbLine
 10
8008.4880191839
 20
13029.4054333454
 30
0.0
 11
8008.4880191839
 21
12945.1188031917
 31
0.0
  0
LINE
  5
14D
330
1F
100
AcDbEntity
  8
0
  6
Continuous
 62
     7
 48
50.0
370
    25
100
AcDbLine
 10
10378.4880239523
 20
13029.4054333454
 30
0.0
 11
10378.4880239523
 21
12945.1188031917
 31
0.0
  0
LINE
  5
14E
330
1F
100
AcDbEntity
  8
0
  6
Continuous
 62
     7
 48
50.0
370
    25
100
AcDbLine
 10
8008.4880191839
 20
13052.2292439228
 30
0.0
 11
8008.4880191839
 21
13034.0566818004
 31
0.0
  0
LINE
  5
14F
330
1F
100
AcDbEntity
  8
0
  6
Continuous
 62
     7
 48
50.0
370
    25
100
AcDbLine
 10
10378.4880239523
 20
13052.2292439228
 30
0.0
 11
10378.4880239523
 21
13034.0566818004
 31
0.0
  0
LINE
  5
150
330
1F
100
AcDbEntity
  8
0
  6
Continuous
 62
     7
 48
50.0
370
    25
100
AcDbLine
 10
9203.0880350626
 20
13045.8899919277
 30
0.0
 11
9183.8880378759
 21
13045.8899919277
 31
0.0
  0
LINE
  5
151
330
1F
100
AcDbEntity
  8
0
  6
Continuous
 62
     7
 48
50.0
370
    25
100
AcDbLine
 10
9183.8880378759
 20
13040.3959337955
 30
0.0
 11
9203.0880350626
 21
13040.3959337955
 31
0.0
  0
LWPOLYLINE
  5
152
330
1F
100
AcDbEntity
  8
0
  6
Continuous
 62
     7
 48
50.0
370
    25
100
AcDbPolyline
 90
       15
 70
   128
 43
0.0
 10
10346.9974596059
 20
13010.2367583995
 10
10347.1632201231
 20
13009.1951672321
 10
10347.6793963468
 20
13007.9098526721
 10
10348.5087353742
 20
13006.7670528179
 10
10349.606474117
 20
13005.8283988719
 10
10350.9134847677
 20
13005.1444951778
 10
10352.359314636
 20
13004.7522370105
 10
10353.865941242
 20
13004.6726648097
 10
10355.3522426641
 20
13004.9101893192
 10
10356.7380506551
 20
13005.4519955402
 10
10357.9486209905
 20
13006.2687579875
 10
10358.9186865842
 20
13007.316548038
 10
10359.5960337675
 20
13008.5388604885
 10
10359.9440652883
 20
13009.8698322063
 10
10359.9786359823
 20
13010.2367583995
  0
LWPOLYLINE
  5
153
330
1F
100
AcDbEntity
  8
0
  6
Continuous
 62
     7
 48
50.0
370
    25
100
AcDbPolyline
 90
       15
 70
   128
 43
0.0
 10
8026.9974071538
 20
13010.2367583995
 10
8027.0319778478
 20
13009.8698322063
 10
8027.3800689733
 20
13008.5388604885
 10
8028.0572969472
 20
13007.316548038
 10
8029.0274221456
 20
13006.2687579875
 10
8030.237992481
 20
13005.4519955402
 10
8031.623800472
 20
13004.9101893192
 10
8033.1101018941
 20
13004.6726648097
 10
8034.6167881048
 20
13004.7522370105
 10
8036.0625583684
 20
13005.1444951778
 10
8037.3695690191
 20
13005.8283988719
 10
8038.4673673666
 20
13006.7670528179
 10
8039.2965871847
 20
13007.9098526721
 10
8039.8127634084
 20
13009.1951672321
 10
8039.9785835302
 20
13010.2367583995
  0
LINE
  5
154
330
1F
100
AcDbEntity
  8
0
  6
Continuous
 62
     7
 48
50.0
370
    25
100
AcDbLine
 10
9203.0880350626
 20
13044.5305291896
 30
0.0
 11
9183.8880378759
 21
13044.5305291896
 31
0.0
  0
LWPOLYLINE
  5
155
330
1F
100
AcDbEntity
  8
0
  6
Continuous
 62
     7
 48
50.0
370
    25
100
AcDbPolyline
 90
       15
 70
   128
 43
0.0
 10
10346.9974596059
 20
12964.9213735347
 10
10347.1632201231
 20
12963.8797823673
 10
10347.6793963468
 20
12962.5944678073
 10
10348.5087353742
 20
12961.4516679531
 10
10349.606474117
 20
12960.5130140071
 10
10350.9134847677
 20
12959.829110313
 10
10352.359314636
 20
12959.4368521457
 10
10353.865941242
 20
12959.3572799449
 10
10355.3522426641
 20
12959.5948044544
 10
10356.7380506551
 20
12960.1365510707
 10
10357.9486209905
 20
12960.9533731227
 10
10358.9186865842
 20
12962.0011631732
 10
10359.5960337675
 20
12963.2234756237
 10
10359.9440652883
 20
12964.5544473415
 10
10359.9786359823
 20
12964.9213735347
  0
LWPOLYLINE
  5
156
330
1F
100
AcDbEntity
  8
0
  6
Continuous
 62
     7
 48
50.0
370
    25
100
AcDbPolyline
 90
       15
 70
   128
 43
0.0
 10
8026.9974071538
 20
12964.9213735347
 10
8027.0319778478
 20
12964.5544473415
 10
8027.3800689733
 20
12963.2234756237
 10
8028.0572969472
 20
12962.0011631732
 10
8029.0274221456
 20
12960.9533731227
 10
8030.237992481
 20
12960.1365510707
 10
8031.623800472
 20
12959.5948044544
 10
8033.1101018941
 20
12959.3572799449
 10
8034.6167881048
 20
12959.4368521457
 10
8036.0625583684
 20
12959.829110313
 10
8037.3695690191
 20
12960.5130140071
 10
8038.4673673666
 20
12961.4516679531
 10
8039.2965871847
 20
12962.5944678073
 10
8039.8127634084
 20
12963.8797823673
 10
8039.9785835302
 20
12964.9213735347
  0
LINE
  5
157
330
1F
100
AcDbEntity
  8
0
  6
Continuous
 62
     7
 48
50.0
370
    25
100
AcDbLine
 10
10378.4880239523
 20
12945.1188031917
 30
0.0
 11
10378.4880239523
 21
12943.0979673152
 31
0.0
  0
LINE
  5
158
330
1F
100
AcDbEntity
  8
0
  6
Continuous
 62
     7
 48
50.0
370
    25
100
AcDbLine
 10
8008.4880191839
 20
12943.0979673152
 30
0.0
 11
8008.4880191839
 21
12945.1188031917
 31
0.0
  0
LINE
  5
159
330
1F
100
AcDbEntity
  8
0
  6
Continuous
 62
     7
 48
50.0
370
    25
100
AcDbLine
 10
10378.4880239523
 20
13052.5571886783
 30
0.0
 11
10378.4880239523
 21
13052.2292439228
 31
0.0
  0
LINE
  5
15A
330
1F
100
AcDbEntity
  8
0
  6
Continuous
 62
     7
 48
50.0
370
    25
100
AcDbLine
 10
8008.4880191839
 20
13052.5571886783
 30
0.0
 11
8008.4880191839
 21
13052.2292439228
 31
0.0
  0
LINE
  5
15B
330
1F
100
AcDbEntity
  8
0
  6
Continuous
 62
     7
 48
50.0
370
    25
100
AcDbLine
 10
8008.4880191839
 20
13604.588884521
 30
0.0
 11
8008.4880191839
 21
13609.2400733715
 31
0.0
  0
LINE
  5
15C
330
1F
100
AcDbEntity
  8
0
  6
Continuous
 62
     7
 48
50.0
370
    25
100
AcDbLine
 10
10378.4880239523
 20
13609.2400733715
 30
0.0
 11
10378.4880239523
 21
13604.588884521
 31
0.0
  0
LWPOLYLINE
  5
15D
330
1F
100
AcDbEntity
  8
0
  6
Continuous
 62
     7
 48
50.0
370
    25
100
AcDbPolyline
 90
       28
 70
   128
 43
0.0
 10
8039.9880010641
 20
13539.7879068141
 10
8039.8127634084
 20
13541.1464158779
 10
8039.2965871847
 20
13542.4317304378
 10
8038.4673673666
 20
13543.5744706874
 10
8037.3695690191
 20
13544.5131246334
 10
8036.0625583684
 20
13545.1970283275
 10
8034.6167881048
 20
13545.5893460994
 10
8033.1101018941
 20
13545.6688586955
 10
8031.623800472
 20
13545.4313937908
 10
8030.237992481
 20
13544.8895875698
 10
8029.0274221456
 20
13544.0727655178
 10
8028.0572969472
 20
13543.0250350719
 10
8027.3800689733
 20
13541.8026630168
 10
8027.0319778478
 20
13540.4718105083
 10
8027.0319778478
 20
13539.10400312
 10
8027.3800689733
 20
13537.7730314022
 10
8028.0572969472
 20
13536.5506593471
 10
8029.0274221456
 20
13535.5029289012
 10
8030.237992481
 20
13534.6861068492
 10
8031.623800472
 20
13534.1443006282
 10
8033.1101018941
 20
13533.9068357234
 10
8034.6167881048
 20
13533.9863483196
 10
8036.0625583684
 20
13534.3786660915
 10
8037.3695690191
 20
13535.0625697856
 10
8038.4673673666
 20
13536.0012237316
 10
8039.2965871847
 20
13537.1439639812
 10
8039.8127634084
 20
13538.4292785411
 10
8039.9880010641
 20
13539.7879068141
  0
LWPOLYLINE
  5
15E
330
1F
100
AcDbEntity
  8
0
  6
Continuous
 62
     7
 48
50.0
370
    25
100
AcDbPolyline
 90
       28
 70
   128
 43
0.0
 10
10346.9880420721
 20
13585.1032916789
 10
10347.1632201231
 20
13583.7446634059
 10
10347.6793963468
 20
13582.459348846
 10
10348.5087353742
 20
13581.3166085964
 10
10349.606474117
 20
13580.3779546504
 10
10350.9134847677
 20
13579.6940509563
 10
10352.359314636
 20
13579.3017331844
 10
10353.865941242
 20
13579.2222205882
 10
10355.3522426641
 20
13579.459685493
 10
10356.7380506551
 20
13580.001491714
 10
10357.9486209905
 20
13580.818313766
 10
10358.9186865842
 20
13581.8660442119
 10
10359.5960337675
 20
13583.088416267
 10
10359.9440652883
 20
13584.4193879848
 10
10359.9440652883
 20
13585.7871953731
 10
10359.5960337675
 20
13587.1180478816
 10
10358.9186865842
 20
13588.3404199367
 10
10357.9486209905
 20
13589.3881503826
 10
10356.7380506551
 20
13590.2049724346
 10
10355.3522426641
 20
13590.7467786556
 10
10353.865941242
 20
13590.9842435604
 10
10352.359314636
 20
13590.9047309642
 10
10350.9134847677
 20
13590.5124131923
 10
10349.606474117
 20
13589.8285094982
 10
10348.5087353742
 20
13588.8898555522
 10
10347.6793963468
 20
13587.7471153026
 10
10347.1632201231
 20
13586.4618007427
 10
10346.9880420721
 20
13585.1032916789
  0
LWPOLYLINE
  5
15F
330
1F
100
AcDbEntity
  8
0
  6
Continuous
 62
     7
 48
50.0
370
    25
100
AcDbPolyline
 90
       28
 70
   128
 43
0.0
 10
10346.9880420721
 20
13539.7879068141
 10
10347.1632201231
 20
13538.4292785411
 10
10347.6793963468
 20
13537.1439639812
 10
10348.5087353742
 20
13536.0012237316
 10
10349.606474117
 20
13535.0625697856
 10
10350.9134847677
 20
13534.3786660915
 10
10352.359314636
 20
13533.9863483196
 10
10353.865941242
 20
13533.9068357234
 10
10355.3522426641
 20
13534.1443006282
 10
10356.7380506551
 20
13534.6861068492
 10
10357.9486209905
 20
13535.5029289012
 10
10358.9186865842
 20
13536.5506593471
 10
10359.5960337675
 20
13537.7730314022
 10
10359.9440652883
 20
13539.10400312
 10
10359.9440652883
 20
13540.4718105083
 10
10359.5960337675
 20
13541.8026630168
 10
10358.9186865842
 20
13543.0250350719
 10
10357.9486209905
 20
13544.0727655178
 10
10356.7380506551
 20
13544.8895875698
 10
10355.3522426641
 20
13545.4313937908
 10
10353.865941242
 20
13545.6688586955
 10
10352.359314636
 20
13545.5893460994
 10
10350.9134847677
 20
13545.1970283275
 10
10349.606474117
 20
13544.5131246334
 10
10348.5087353742
 20
13543.5744706874
 10
10347.6793963468
 20
13542.4317304378
 10
10347.1632201231
 20
13541.1464158779
 10
10346.9880420721
 20
13539.7879068141
  0
LWPOLYLINE
  5
160
330
1F
100
AcDbEntity
  8
0
  6
Continuous
 62
     7
 48
50.0
370
    25
100
AcDbPolyline
 90
       28
 70
   128
 43
0.0
 10
8039.9880010641
 20
13585.1032916789
 10
8039.8127634084
 20
13586.4618007427
 10
8039.2965871847
 20
13587.7471153026
 10
8038.4673673666
 20
13588.8898555522
 10
8037.3695690191
 20
13589.8285094982
 10
8036.0625583684
 20
13590.5124131923
 10
8034.6167881048
 20
13590.9047309642
 10
8033.1101018941
 20
13590.9842435604
 10
8031.623800472
 20
13590.7467786556
 10
8030.237992481
 20
13590.2049724346
 10
8029.0274221456
 20
13589.3881503826
 10
8028.0572969472
 20
13588.3404199367
 10
8027.3800689733
 20
13587.1180478816
 10
8027.0319778478
 20
13585.7871953731
 10
8027.0319778478
 20
13584.4193879848
 10
8027.3800689733
 20
13583.088416267
 10
8028.0572969472
 20
13581.8660442119
 10
8029.0274221456
 20
13580.818313766
 10
8030.237992481
 20
13580.001491714
 10
8031.623800472
 20
13579.459685493
 10
8033.1101018941
 20
13579.2222205882
 10
8034.6167881048
 20
13579.3017331844
 10
8036.0625583684
 20
13579.6940509563
 10
8037.3695690191
 20
13580.3779546504
 10
8038.4673673666
 20
13581.3166085964
 10
8039.2965871847
 20
13582.459348846
 10
8039.8127634084
 20
13583.7446634059
 10
8039.9880010641
 20
13585.1032916789
  0
LINE
  5
161
330
1F
100
AcDbEntity
  8
0
  6
Continuous
 62
     7
 48
50.0
370
    25
100
AcDbLine
 10
8008.4880191839
 20
13604.588884521
 30
0.0
 11
8008.4880191839
 21
13520.3021947627
 31
0.0
  0
LINE
  5
162
330
1F
100
AcDbEntity
  8
0
  6
Continuous
 62
     7
 48
50.0
370
    25
100
AcDbLine
 10
10378.4880239523
 20
13604.588884521
 30
0.0
 11
10378.4880239523
 21
13520.3021947627
 31
0.0
  0
LINE
  5
163
330
1F
100
AcDbEntity
  8
0
  6
Continuous
 62
     7
 48
50.0
370
    25
100
AcDbLine
 10
8008.4880191839
 20
13627.4126950984
 30
0.0
 11
8008.4880191839
 21
13609.2400733715
 31
0.0
  0
LINE
  5
164
330
1F
100
AcDbEntity
  8
0
  6
Continuous
 62
     7
 48
50.0
370
    25
100
AcDbLine
 10
10378.4880239523
 20
13627.4126950984
 30
0.0
 11
10378.4880239523
 21
13609.2400733715
 31
0.0
  0
LINE
  5
165
330
1F
100
AcDbEntity
  8
0
  6
Continuous
 62
     7
 48
50.0
370
    25
100
AcDbLine
 10
9203.0880350626
 20
13621.0733834987
 30
0.0
 11
9183.8880378759
 21
13621.0733834987
 31
0.0
  0
LINE
  5
166
330
1F
100
AcDbEntity
  8
0
  6
Continuous
 62
     7
 48
50.0
370
    25
100
AcDbLine
 10
9183.8880378759
 20
13615.5793849712
 30
0.0
 11
9203.0880350626
 21
13615.5793849712
 31
0.0
  0
LWPOLYLINE
  5
167
330
1F
100
AcDbEntity
  8
0
  6
Continuous
 62
     7
 48
50.0
370
    25
100
AcDbPolyline
 90
       15
 70
   128
 43
0.0
 10
10346.9974596059
 20
13585.4202691799
 10
10347.1632201231
 20
13584.3786184078
 10
10347.6793963468
 20
13583.0933038478
 10
10348.5087353742
 20
13581.9505635982
 10
10349.606474117
 20
13581.0119096523
 10
10350.9134847677
 20
13580.3280059581
 10
10352.359314636
 20
13579.9356881862
 10
10353.865941242
 20
13579.8561755901
 10
10355.3522426641
 20
13580.0936404949
 10
10356.7380506551
 20
13580.6354467159
 10
10357.9486209905
 20
13581.4522687679
 10
10358.9186865842
 20
13582.4999992137
 10
10359.5960337675
 20
13583.7223712688
 10
10359.9440652883
 20
13585.0532237773
 10
10359.9786359823
 20
13585.4202691799
  0
LWPOLYLINE
  5
168
330
1F
100
AcDbEntity
  8
0
  6
Continuous
 62
     7
 48
50.0
370
    25
100
AcDbPolyline
 90
       15
 70
   128
 43
0.0
 10
8026.9974071538
 20
13585.4202691799
 10
8027.0319778478
 20
13585.0532237773
 10
8027.3800689733
 20
13583.7223712688
 10
8028.0572969472
 20
13582.4999992137
 10
8029.0274221456
 20
13581.4522687679
 10
8030.237992481
 20
13580.6354467159
 10
8031.623800472
 20
13580.0936404949
 10
8033.1101018941
 20
13579.8561755901
 10
8034.6167881048
 20
13579.9356881862
 10
8036.0625583684
 20
13580.3280059581
 10
8037.3695690191
 20
13581.0119096523
 10
8038.4673673666
 20
13581.9505635982
 10
8039.2965871847
 20
13583.0933038478
 10
8039.8127634084
 20
13584.3786184078
 10
8039.9785835302
 20
13585.4202691799
  0
LINE
  5
169
330
1F
100
AcDbEntity
  8
0
  6
Continuous
 62
     7
 48
50.0
370
    25
100
AcDbLine
 10
9203.0880350626
 20
13619.7139207607
 30
0.0
 11
9183.8880378759
 21
13619.7139207607
 31
0.0
  0
LWPOLYLINE
  5
16A
330
1F
100
AcDbEntity
  8
0
  6
Continuous
 62
     7
 48
50.0
370
    25
100
AcDbPolyline
 90
       15
 70
   128
 43
0.0
 10
10346.9974596059
 20
13540.1047651058
 10
10347.1632201231
 20
13539.063233543
 10
10347.6793963468
 20
13537.777918983
 10
10348.5087353742
 20
13536.6351787334
 10
10349.606474117
 20
13535.6965247875
 10
10350.9134847677
 20
13535.0126210933
 10
10352.359314636
 20
13534.6203033214
 10
10353.865941242
 20
13534.5407907253
 10
10355.3522426641
 20
13534.7782556301
 10
10356.7380506551
 20
13535.3200618511
 10
10357.9486209905
 20
13536.1368839031
 10
10358.9186865842
 20
13537.1846143489
 10
10359.5960337675
 20
13538.406986404
 10
10359.9440652883
 20
13539.7378389125
 10
10359.9786359823
 20
13540.1047651058
  0
LWPOLYLINE
  5
16B
330
1F
100
AcDbEntity
  8
0
  6
Continuous
 62
     7
 48
50.0
370
    25
100
AcDbPolyline
 90
       15
 70
   128
 43
0.0
 10
8026.9974071538
 20
13540.1047651058
 10
8027.0319778478
 20
13539.7378389125
 10
8027.3800689733
 20
13538.406986404
 10
8028.0572969472
 20
13537.1846143489
 10
8029.0274221456
 20
13536.1368839031
 10
8030.237992481
 20
13535.3200618511
 10
8031.623800472
 20
13534.7782556301
 10
8033.1101018941
 20
13534.5407907253
 10
8034.6167881048
 20
13534.6203033214
 10
8036.0625583684
 20
13535.0126210933
 10
8037.3695690191
 20
13535.6965247875
 10
8038.4673673666
 20
13536.6351787334
 10
8039.2965871847
 20
13537.777918983
 10
8039.8127634084
 20
13539.063233543
 10
8039.9785835302
 20
13540.1047651058
  0
LINE
  5
16C
330
1F
100
AcDbEntity
  8
0
  6
Continuous
 62
     7
 48
50.0
370
    25
100
AcDbLine
 10
10378.4880239523
 20
13520.3021947627
 30
0.0
 11
10378.4880239523
 21
13518.2813588863
 31
0.0
  0
LINE
  5
16D
330
1F
100
AcDbEntity
  8
0
  6
Continuous
 62
     7
 48
50.0
370
    25
100
AcDbLine
 10
8008.4880191839
 20
13518.2813588863
 30
0.0
 11
8008.4880191839
 21
13520.3021947627
 31
0.0
  0
LINE
  5
16E
330
1F
100
AcDbEntity
  8
0
  6
Continuous
 62
     7
 48
50.0
370
    25
100
AcDbLine
 10
10378.4880239523
 20
13627.740639854
 30
0.0
 11
10378.4880239523
 21
13627.4126950984
 31
0.0
  0
LINE
  5
16F
330
1F
100
AcDbEntity
  8
0
  6
Continuous
 62
     7
 48
50.0
370
    25
100
AcDbLine
 10
8008.4880191839
 20
13627.740639854
 30
0.0
 11
8008.4880191839
 21
13627.4126950984
 31
0.0
  0
LINE
  5
170
330
1F
100
AcDbEntity
  8
0
  6
Continuous
 62
     7
 48
50.0
370
    25
100
AcDbLine
 10
8008.4880191839
 20
14500.1169626003
 30
0.0
 11
8008.4880191839
 21
14504.76827066
 31
0.0
  0
LINE
  5
171
330
1F
100
AcDbEntity
  8
0
  6
Continuous
 62
     7
 48
50.0
370
    25
100
AcDbLine
 10
10378.4880239523
 20
14504.76827066
 30
0.0
 11
10378.4880239523
 21
14500.1169626003
 31
0.0
  0
LWPOLYLINE
  5
172
330
1F
100
AcDbEntity
  8
0
  6
Continuous
 62
     7
 48
50.0
370
    25
100
AcDbPolyline
 90
       28
 70
   128
 43
0.0
 10
8039.9880010641
 20
14435.3159848934
 10
8039.8127634084
 20
14436.6744939571
 10
8039.2965871847
 20
14437.959808517
 10
8038.4673673666
 20
14439.1025487667
 10
8037.3695690191
 20
14440.0412027126
 10
8036.0625583684
 20
14440.725225616
 10
8034.6167881048
 20
14441.1174241786
 10
8033.1101018941
 20
14441.1970559841
 10
8031.623800472
 20
14440.9595910793
 10
8030.237992481
 20
14440.417665649
 10
8029.0274221456
 20
14439.600843597
 10
8028.0572969472
 20
14438.5532323604
 10
8027.3800689733
 20
14437.3308603054
 10
8027.0319778478
 20
14435.9997693782
 10
8027.0319778478
 20
14434.6319619899
 10
8027.3800689733
 20
14433.3011094814
 10
8028.0572969472
 20
14432.0787374263
 10
8029.0274221456
 20
14431.0308877712
 10
8030.237992481
 20
14430.2143041377
 10
8031.623800472
 20
14429.6723787074
 10
8033.1101018941
 20
14429.4349138027
 10
8034.6167881048
 20
14429.5145456081
 10
8036.0625583684
 20
14429.9067441707
 10
8037.3695690191
 20
14430.5905286556
 10
8038.4673673666
 20
14431.5291826015
 10
8039.2965871847
 20
14432.6721612697
 10
8039.8127634084
 20
14433.9574758296
 10
8039.9880010641
 20
14435.3159848934
  0
LWPOLYLINE
  5
173
330
1F
100
AcDbEntity
  8
0
  6
Continuous
 62
     7
 48
50.0
370
    25
100
AcDbPolyline
 90
       28
 70
   128
 43
0.0
 10
10346.9880420721
 20
14480.6312505489
 10
10347.1632201231
 20
14479.2727414852
 10
10347.6793963468
 20
14477.9874269252
 10
10348.5087353742
 20
14476.8446866756
 10
10349.606474117
 20
14475.9060327297
 10
10350.9134847677
 20
14475.2222482448
 10
10352.359314636
 20
14474.8298112636
 10
10353.865941242
 20
14474.7504178768
 10
10355.3522426641
 20
14474.9878827815
 10
10356.7380506551
 20
14475.5295697933
 10
10357.9486209905
 20
14476.3463918453
 10
10358.9186865842
 20
14477.3942415004
 10
10359.5960337675
 20
14478.6166135555
 10
10359.9440652883
 20
14479.947466064
 10
10359.9440652883
 20
14481.3152734523
 10
10359.5960337675
 20
14482.6461259609
 10
10358.9186865842
 20
14483.8684980159
 10
10357.9486209905
 20
14484.9163476711
 10
10356.7380506551
 20
14485.7331697231
 10
10355.3522426641
 20
14486.2748567348
 10
10353.865941242
 20
14486.5123216396
 10
10352.359314636
 20
14486.4329282527
 10
10350.9134847677
 20
14486.0404912715
 10
10349.606474117
 20
14485.3567067867
 10
10348.5087353742
 20
14484.4180528408
 10
10347.6793963468
 20
14483.2753125911
 10
10347.1632201231
 20
14481.9899980312
 10
10346.9880420721
 20
14480.6312505489
  0
LWPOLYLINE
  5
174
330
1F
100
AcDbEntity
  8
0
  6
Continuous
 62
     7
 48
50.0
370
    25
100
AcDbPolyline
 90
       28
 70
   128
 43
0.0
 10
10346.9880420721
 20
14435.3159848934
 10
10347.1632201231
 20
14433.9574758296
 10
10347.6793963468
 20
14432.6721612697
 10
10348.5087353742
 20
14431.5291826015
 10
10349.606474117
 20
14430.5905286556
 10
10350.9134847677
 20
14429.9067441707
 10
10352.359314636
 20
14429.5145456081
 10
10353.865941242
 20
14429.4349138027
 10
10355.3522426641
 20
14429.6723787074
 10
10356.7380506551
 20
14430.2143041377
 10
10357.9486209905
 20
14431.0308877712
 10
10358.9186865842
 20
14432.0787374263
 10
10359.5960337675
 20
14433.3011094814
 10
10359.9440652883
 20
14434.6319619899
 10
10359.9440652883
 20
14435.9997693782
 10
10359.5960337675
 20
14437.3308603054
 10
10358.9186865842
 20
14438.5532323604
 10
10357.9486209905
 20
14439.600843597
 10
10356.7380506551
 20
14440.417665649
 10
10355.3522426641
 20
14440.9595910793
 10
10353.865941242
 20
14441.1970559841
 10
10352.359314636
 20
14441.1174241786
 10
10350.9134847677
 20
14440.725225616
 10
10349.606474117
 20
14440.0412027126
 10
10348.5087353742
 20
14439.1025487667
 10
10347.6793963468
 20
14437.959808517
 10
10347.1632201231
 20
14436.6744939571
 10
10346.9880420721
 20
14435.3159848934
  0
LWPOLYLINE
  5
175
330
1F
100
AcDbEntity
  8
0
  6
Continuous
 62
     7
 48
50.0
370
    25
100
AcDbPolyline
 90
       28
 70
   128
 43
0.0
 10
8039.9880010641
 20
14480.6312505489
 10
8039.8127634084
 20
14481.9899980312
 10
8039.2965871847
 20
14483.2753125911
 10
8038.4673673666
 20
14484.4180528408
 10
8037.3695690191
 20
14485.3567067867
 10
8036.0625583684
 20
14486.0404912715
 10
8034.6167881048
 20
14486.4329282527
 10
8033.1101018941
 20
14486.5123216396
 10
8031.623800472
 20
14486.2748567348
 10
8030.237992481
 20
14485.7331697231
 10
8029.0274221456
 20
14484.9163476711
 10
8028.0572969472
 20
14483.8684980159
 10
8027.3800689733
 20
14482.6461259609
 10
8027.0319778478
 20
14481.3152734523
 10
8027.0319778478
 20
14479.947466064
 10
8027.3800689733
 20
14478.6166135555
 10
8028.0572969472
 20
14477.3942415004
 10
8029.0274221456
 20
14476.3463918453
 10
8030.237992481
 20
14475.5295697933
 10
8031.623800472
 20
14474.9878827815
 10
8033.1101018941
 20
14474.7504178768
 10
8034.6167881048
 20
14474.8298112636
 10
8036.0625583684
 20
14475.2222482448
 10
8037.3695690191
 20
14475.9060327297
 10
8038.4673673666
 20
14476.8446866756
 10
8039.2965871847
 20
14477.9874269252
 10
8039.8127634084
 20
14479.2727414852
 10
8039.9880010641
 20
14480.6312505489
  0
LINE
  5
176
330
1F
100
AcDbEntity
  8
0
  6
Continuous
 62
     7
 48
50.0
370
    25
100
AcDbLine
 10
8008.4880191839
 20
14500.1169626003
 30
0.0
 11
8008.4880191839
 21
14415.830272842
 31
0.0
  0
LINE
  5
177
330
1F
100
AcDbEntity
  8
0
  6
Continuous
 62
     7
 48
50.0
370
    25
100
AcDbLine
 10
10378.4880239523
 20
14500.1169626003
 30
0.0
 11
10378.4880239523
 21
14415.830272842
 31
0.0
  0
LINE
  5
178
330
1F
100
AcDbEntity
  8
0
  6
Continuous
 62
     7
 48
50.0
370
    25
100
AcDbLine
 10
8008.4880191839
 20
14522.9407731777
 30
0.0
 11
8008.4880191839
 21
14504.76827066
 31
0.0
  0
LINE
  5
179
330
1F
100
AcDbEntity
  8
0
  6
Continuous
 62
     7
 48
50.0
370
    25
100
AcDbLine
 10
10378.4880239523
 20
14522.9407731777
 30
0.0
 11
10378.4880239523
 21
14504.76827066
 31
0.0
  0
LINE
  5
17A
330
1F
100
AcDbEntity
  8
0
  6
Continuous
 62
     7
 48
50.0
370
    25
100
AcDbLine
 10
9202.9880184686
 20
14516.6014615779
 30
0.0
 11
9183.9880246675
 21
14516.6014615779
 31
0.0
  0
LINE
  5
17B
330
1F
100
AcDbEntity
  8
0
  6
Continuous
 62
     7
 48
50.0
370
    25
100
AcDbLine
 10
9183.9880246675
 20
14511.1075822597
 30
0.0
 11
9202.9880184686
 21
14511.1075822597
 31
0.0
  0
LWPOLYLINE
  5
17C
330
1F
100
AcDbEntity
  8
0
  6
Continuous
 62
     7
 48
50.0
370
    25
100
AcDbPolyline
 90
       15
 70
   128
 43
0.0
 10
10346.9974596059
 20
14480.9483472591
 10
10347.1632201231
 20
14479.906696487
 10
10347.6793963468
 20
14478.6213819271
 10
10348.5087353742
 20
14477.4786416774
 10
10349.606474117
 20
14476.5399877315
 10
10350.9134847677
 20
14475.8559648281
 10
10352.359314636
 20
14475.4637662654
 10
10353.865941242
 20
14475.38413446
 10
10355.3522426641
 20
14475.6218377834
 10
10356.7380506551
 20
14476.1635247951
 10
10357.9486209905
 20
14476.9803468471
 10
10358.9186865842
 20
14478.0281965023
 10
10359.5960337675
 20
14479.2503301387
 10
10359.9440652883
 20
14480.5814210659
 10
10359.9786359823
 20
14480.9483472591
  0
LWPOLYLINE
  5
17D
330
1F
100
AcDbEntity
  8
0
  6
Continuous
 62
     7
 48
50.0
370
    25
100
AcDbPolyline
 90
       15
 70
   128
 43
0.0
 10
8026.9974071538
 20
14480.9483472591
 10
8027.0319778478
 20
14480.5814210659
 10
8027.3800689733
 20
14479.2503301387
 10
8028.0572969472
 20
14478.0281965023
 10
8029.0274221456
 20
14476.9803468471
 10
8030.237992481
 20
14476.1635247951
 10
8031.623800472
 20
14475.6218377834
 10
8033.1101018941
 20
14475.38413446
 10
8034.6167881048
 20
14475.4637662654
 10
8036.0625583684
 20
14475.8559648281
 10
8037.3695690191
 20
14476.5399877315
 10
8038.4673673666
 20
14477.4786416774
 10
8039.2965871847
 20
14478.6213819271
 10
8039.8127634084
 20
14479.906696487
 10
8039.9785835302
 20
14480.9483472591
  0
LINE
  5
17E
330
1F
100
AcDbEntity
  8
0
  6
Continuous
 62
     7
 48
50.0
370
    25
100
AcDbLine
 10
9202.9880184686
 20
14515.2419988399
 30
0.0
 11
9183.9880246675
 21
14515.2419988399
 31
0.0
  0
LWPOLYLINE
  5
17F
330
1F
100
AcDbEntity
  8
0
  6
Continuous
 62
     7
 48
50.0
370
    25
100
AcDbPolyline
 90
       15
 70
   128
 43
0.0
 10
10346.9974596059
 20
14435.632843185
 10
10347.1632201231
 20
14434.5914308315
 10
10347.6793963468
 20
14433.3061162715
 10
10348.5087353742
 20
14432.1631376033
 10
10349.606474117
 20
14431.2244836574
 10
10350.9134847677
 20
14430.5406991725
 10
10352.359314636
 20
14430.1482621913
 10
10353.865941242
 20
14430.0688688045
 10
10355.3522426641
 20
14430.3063337093
 10
10356.7380506551
 20
14430.848020721
 10
10357.9486209905
 20
14431.664842773
 10
10358.9186865842
 20
14432.7126924282
 10
10359.5960337675
 20
14433.9350644832
 10
10359.9440652883
 20
14435.2659169918
 10
10359.9786359823
 20
14435.632843185
  0
LWPOLYLINE
  5
180
330
1F
100
AcDbEntity
  8
0
  6
Continuous
 62
     7
 48
50.0
370
    25
100
AcDbPolyline
 90
       15
 70
   128
 43
0.0
 10
8026.9974071538
 20
14435.632843185
 10
8027.0319778478
 20
14435.2659169918
 10
8027.3800689733
 20
14433.9350644832
 10
8028.0572969472
 20
14432.7126924282
 10
8029.0274221456
 20
14431.664842773
 10
8030.237992481
 20
14430.848020721
 10
8031.623800472
 20
14430.3063337093
 10
8033.1101018941
 20
14430.0688688045
 10
8034.6167881048
 20
14430.1482621913
 10
8036.0625583684
 20
14430.5406991725
 10
8037.3695690191
 20
14431.2244836574
 10
8038.4673673666
 20
14432.1631376033
 10
8039.2965871847
 20
14433.3061162715
 10
8039.8127634084
 20
14434.5914308315
 10
8039.9785835302
 20
14435.632843185
  0
LINE
  5
181
330
1F
100
AcDbEntity
  8
0
  6
Continuous
 62
     7
 48
50.0
370
    25
100
AcDbLine
 10
10378.4880239523
 20
14415.830272842
 30
0.0
 11
10378.4880239523
 21
14413.8094369655
 31
0.0
  0
LINE
  5
182
330
1F
100
AcDbEntity
  8
0
  6
Continuous
 62
     7
 48
50.0
370
    25
100
AcDbLine
 10
8008.4880191839
 20
14413.8094369655
 30
0.0
 11
8008.4880191839
 21
14415.830272842
 31
0.0
  0
LINE
  5
183
330
1F
100
AcDbEntity
  8
0
  6
Continuous
 62
     7
 48
50.0
370
    25
100
AcDbLine
 10
10378.4880239523
 20
14523.2685987239
 30
0.0
 11
10378.4880239523
 21
14522.9407731777
 31
0.0
  0
LINE
  5
184
330
1F
100
AcDbEntity
  8
0
  6
Continuous
 62
     7
 48
50.0
370
    25
100
AcDbLine
 10
8008.4880191839
 20
14523.2685987239
 30
0.0
 11
8008.4880191839
 21
14522.9407731777
 31
0.0
  0
LINE
  5
185
330
1F
100
AcDbEntity
  8
0
  6
Continuous
 62
     7
 48
50.0
370
    25
100
AcDbLine
 10
8348.4880525625
 20
12830.1433507686
 30
0.0
 11
8348.4880525625
 21
10748.6729804759
 31
0.0
  0
LINE
  5
186
330
1F
100
AcDbEntity
  8
0
  6
Continuous
 62
     7
 48
50.0
370
    25
100
AcDbLine
 10
8348.4880525625
 20
10748.6729804759
 30
0.0
 11
8343.9880210912
 21
10748.6729804759
 31
0.0
  0
LINE
  5
187
330
1F
100
AcDbEntity
  8
0
  6
Continuous
 62
     7
 48
50.0
370
    25
100
AcDbLine
 10
8343.9880210912
 20
10748.6729804759
 30
0.0
 11
8292.9880220449
 21
10748.6729804759
 31
0.0
  0
CIRCLE
  5
188
330
1F
100
AcDbEntity
  8
0
  6
Continuous
 62
     7
 48
2500.0
370
    25
100
AcDbCircle
 10
8318.4880239522
 20
12778.6729566342
 30
0.0
 40
6.5
  0
LINE
  5
189
330
1F
100
AcDbEntity
  8
0
  6
Continuous
 62
     7
 48
50.0
370
    25
100
AcDbLine
 10
8288.4879905736
 20
12830.1433507686
 30
0.0
 11
8288.4879905736
 21
10748.6729804759
 31
0.0
  0
LINE
  5
18A
330
1F
100
AcDbEntity
  8
0
  6
Continuous
 62
     7
 48
50.0
370
    25
100
AcDbLine
 10
8292.9880220449
 20
10748.6729804759
 30
0.0
 11
8288.4879905736
 21
10748.6729804759
 31
0.0
  0
LINE
  5
18B
330
1F
100
AcDbEntity
  8
0
  6
Continuous
 62
     7
 48
50.0
370
    25
100
AcDbLine
 10
10213.9880258596
 20
10748.6729804759
 30
0.0
 11
10162.9880268133
 21
10748.6729804759
 31
0.0
  0
CIRCLE
  5
18C
330
1F
100
AcDbEntity
  8
0
  6
Continuous
 62
     7
 48
2500.0
370
    25
100
AcDbCircle
 10
10188.4880239522
 20
12778.6729566342
 30
0.0
 40
6.5
  0
LINE
  5
18D
330
1F
100
AcDbEntity
  8
0
  6
Continuous
 62
     7
 48
50.0
370
    25
100
AcDbLine
 10
10218.4879977262
 20
12830.1433507686
 30
0.0
 11
10218.4879977262
 21
10748.6729804759
 31
0.0
  0
LINE
  5
18E
330
1F
100
AcDbEntity
  8
0
  6
Continuous
 62
     7
 48
50.0
370
    25
100
AcDbLine
 10
10218.4879977262
 20
10748.6729804759
 30
0.0
 11
10213.9880258596
 21
10748.6729804759
 31
0.0
  0
LINE
  5
18F
330
1F
100
AcDbEntity
  8
0
  6
Continuous
 62
     7
 48
50.0
370
    25
100
AcDbLine
 10
10158.487995342
 20
12830.1433507686
 30
0.0
 11
10158.487995342
 21
10748.6729804759
 31
0.0
  0
LINE
  5
190
330
1F
100
AcDbEntity
  8
0
  6
Continuous
 62
     7
 48
50.0
370
    25
100
AcDbLine
 10
10162.9880268133
 20
10748.6729804759
 30
0.0
 11
10158.487995342
 21
10748.6729804759
 31
0.0
  0
LINE
  5
191
330
1F
100
AcDbEntity
  8
0
  6
Continuous
 62
     8
 48
50.0
370
    25
100
AcDbLine
 10
8008.4880191839
 20
13929.5847598796
 30
0.0
 11
8043.9880687749
 21
13929.5847598796
 31
0.0
  0
LINE
  5
192
330
1F
100
AcDbEntity
  8
0
  6
Continuous
 62
     8
 48
50.0
370
    25
100
AcDbLine
 10
8008.4880191839
 20
13924.9334518199
 30
0.0
 11
8043.9880687749
 21
13924.9334518199
 31
0.0
  0
LINE
  5
193
330
1F
100
AcDbEntity
  8
0
  6
Continuous
 62
     8
 48
50.0
370
    25
100
AcDbLine
 10
9183.9880246675
 20
13929.5847598796
 30
0.0
 11
9202.9880184686
 21
13929.5847598796
 31
0.0
  0
LINE
  5
194
330
1F
100
AcDbEntity
  8
0
  6
Continuous
 62
     8
 48
50.0
370
    25
100
AcDbLine
 10
9183.9880246675
 20
13924.9334518199
 30
0.0
 11
9202.9880184686
 21
13924.9334518199
 31
0.0
  0
LINE
  5
195
330
1F
100
AcDbEntity
  8
0
  6
Continuous
 62
     8
 48
50.0
370
    25
100
AcDbLine
 10
10342.9880339658
 20
13924.9334518199
 30
0.0
 11
10378.4880239523
 21
13924.9334518199
 31
0.0
  0
LINE
  5
196
330
1F
100
AcDbEntity
  8
0
  6
Continuous
 62
     8
 48
50.0
370
    25
100
AcDbLine
 10
10342.9880339658
 20
13929.5847598796
 30
0.0
 11
10378.4880239523
 21
13929.5847598796
 31
0.0
  0
LINE
  5
197
330
1F
100
AcDbEntity
  8
0
  6
Continuous
 62
     8
 48
50.0
370
    25
100
AcDbLine
 10
8008.4880191839
 20
13840.6468812709
 30
0.0
 11
8043.9880687749
 21
13840.6468812709
 31
0.0
  0
LINE
  5
198
330
1F
100
AcDbEntity
  8
0
  6
Continuous
 62
     8
 48
50.0
370
    25
100
AcDbLine
 10
10342.9880339658
 20
13840.6468812709
 30
0.0
 11
10378.4880239523
 21
13840.6468812709
 31
0.0
  0
LINE
  5
199
330
1F
100
AcDbEntity
  8
0
  6
Continuous
 62
     8
 48
50.0
370
    25
100
AcDbLine
 10
9183.9880246675
 20
13840.6468812709
 30
0.0
 11
9202.9880184686
 21
13840.6468812709
 31
0.0
  0
LINE
  5
19A
330
1F
100
AcDbEntity
  8
0
  6
Continuous
 62
     8
 48
50.0
370
    25
100
AcDbLine
 10
8008.4880191839
 20
13947.7573816066
 30
0.0
 11
8043.9880687749
 21
13947.7573816066
 31
0.0
  0
LINE
  5
19B
330
1F
100
AcDbEntity
  8
0
  6
Continuous
 62
     8
 48
50.0
370
    25
100
AcDbLine
 10
9183.9880246675
 20
13947.7573816066
 30
0.0
 11
9202.9880184686
 21
13947.7573816066
 31
0.0
  0
LINE
  5
19C
330
1F
100
AcDbEntity
  8
0
  6
Continuous
 62
     8
 48
50.0
370
    25
100
AcDbLine
 10
10342.9880339658
 20
13947.7573816066
 30
0.0
 11
10378.4880239523
 21
13947.7573816066
 31
0.0
  0
LINE
  5
19D
330
1F
100
AcDbEntity
  8
0
  6
Continuous
 62
     8
 48
50.0
370
    25
100
AcDbLine
 10
8027.4947483099
 20
13858.486074615
 30
0.0
 11
8039.4812423742
 21
13858.486074615
 31
0.0
  0
LINE
  5
19E
330
1F
100
AcDbEntity
  8
0
  6
Continuous
 62
     8
 48
50.0
370
    25
100
AcDbLine
 10
10347.4948007619
 20
13858.486074615
 30
0.0
 11
10359.4812948263
 21
13858.486074615
 31
0.0
  0
LINE
  5
19F
330
1F
100
AcDbEntity
  8
0
  6
Continuous
 62
     8
 48
50.0
370
    25
100
AcDbLine
 10
8027.0845491445
 20
13861.1438457256
 30
0.0
 11
8039.8915607488
 21
13861.1438457256
 31
0.0
  0
LINE
  5
1A0
330
1F
100
AcDbEntity
  8
0
  6
Continuous
 62
     8
 48
50.0
370
    25
100
AcDbLine
 10
10347.084541992
 20
13861.1438457256
 30
0.0
 11
10359.8914939916
 21
13861.1438457256
 31
0.0
  0
LINE
  5
1A1
330
1F
100
AcDbEntity
  8
0
  6
Continuous
 62
     8
 48
50.0
370
    25
100
AcDbLine
 10
8008.4880191839
 20
13034.0566818004
 30
0.0
 11
8044.0879661596
 21
13034.0566818004
 31
0.0
  0
LINE
  5
1A2
330
1F
100
AcDbEntity
  8
0
  6
Continuous
 62
     8
 48
50.0
370
    25
100
AcDbLine
 10
8008.4880191839
 20
13029.4054333454
 30
0.0
 11
8044.0879661596
 21
13029.4054333454
 31
0.0
  0
LINE
  5
1A3
330
1F
100
AcDbEntity
  8
0
  6
Continuous
 62
     8
 48
50.0
370
    25
100
AcDbLine
 10
9183.8880378759
 20
13034.0566818004
 30
0.0
 11
9203.0880350626
 21
13034.0566818004
 31
0.0
  0
LINE
  5
1A4
330
1F
100
AcDbEntity
  8
0
  6
Continuous
 62
     8
 48
50.0
370
    25
100
AcDbLine
 10
9183.8880378759
 20
13029.4054333454
 30
0.0
 11
9203.0880350626
 21
13029.4054333454
 31
0.0
  0
LINE
  5
1A5
330
1F
100
AcDbEntity
  8
0
  6
Continuous
 62
     8
 48
50.0
370
    25
100
AcDbLine
 10
10342.8880173719
 20
13029.4054333454
 30
0.0
 11
10378.4880239523
 21
13029.4054333454
 31
0.0
  0
LINE
  5
1A6
330
1F
100
AcDbEntity
  8
0
  6
Continuous
 62
     8
 48
50.0
370
    25
100
AcDbLine
 10
10342.8880173719
 20
13034.0566818004
 30
0.0
 11
10378.4880239523
 21
13034.0566818004
 31
0.0
  0
LINE
  5
1A7
330
1F
100
AcDbEntity
  8
0
  6
Continuous
 62
     8
 48
50.0
370
    25
100
AcDbLine
 10
8008.4880191839
 20
12945.1188031917
 30
0.0
 11
8043.9880687749
 21
12945.1188031917
 31
0.0
  0
LINE
  5
1A8
330
1F
100
AcDbEntity
  8
0
  6
Continuous
 62
     8
 48
50.0
370
    25
100
AcDbLine
 10
10342.9880339658
 20
12945.1188031917
 30
0.0
 11
10378.4880239523
 21
12945.1188031917
 31
0.0
  0
LINE
  5
1A9
330
1F
100
AcDbEntity
  8
0
  6
Continuous
 62
     8
 48
50.0
370
    25
100
AcDbLine
 10
9183.9880246675
 20
12945.1188031917
 30
0.0
 11
9202.9880184686
 21
12945.1188031917
 31
0.0
  0
LINE
  5
1AA
330
1F
100
AcDbEntity
  8
0
  6
Continuous
 62
     8
 48
50.0
370
    25
100
AcDbLine
 10
8008.4880191839
 20
13052.2292439228
 30
0.0
 11
8044.0879661596
 21
13052.2292439228
 31
0.0
  0
LINE
  5
1AB
330
1F
100
AcDbEntity
  8
0
  6
Continuous
 62
     8
 48
50.0
370
    25
100
AcDbLine
 10
9183.8880378759
 20
13052.2292439228
 30
0.0
 11
9203.0880350626
 21
13052.2292439228
 31
0.0
  0
LINE
  5
1AC
330
1F
100
AcDbEntity
  8
0
  6
Continuous
 62
     8
 48
50.0
370
    25
100
AcDbLine
 10
10342.8880173719
 20
13052.2292439228
 30
0.0
 11
10378.4880239523
 21
13052.2292439228
 31
0.0
  0
LINE
  5
1AD
330
1F
100
AcDbEntity
  8
0
  6
Continuous
 62
     8
 48
50.0
370
    25
100
AcDbLine
 10
8027.4947483099
 20
12962.9579369312
 30
0.0
 11
8039.4812423742
 21
12962.9579369312
 31
0.0
  0
LINE
  5
1AE
330
1F
100
AcDbEntity
  8
0
  6
Continuous
 62
     8
 48
50.0
370
    25
100
AcDbLine
 10
10347.4948007619
 20
12962.9579369312
 30
0.0
 11
10359.4812948263
 21
12962.9579369312
 31
0.0
  0
LINE
  5
1AF
330
1F
100
AcDbEntity
  8
0
  6
Continuous
 62
     8
 48
50.0
370
    25
100
AcDbLine
 10
8027.0845491445
 20
12965.6157676464
 30
0.0
 11
8039.8915607488
 21
12965.6157676464
 31
0.0
  0
LINE
  5
1B0
330
1F
100
AcDbEntity
  8
0
  6
Continuous
 62
     8
 48
50.0
370
    25
100
AcDbLine
 10
10347.084541992
 20
12965.6157676464
 30
0.0
 11
10359.8914939916
 21
12965.6157676464
 31
0.0
  0
LINE
  5
1B1
330
1F
100
AcDbEntity
  8
0
  6
Continuous
 62
     8
 48
50.0
370
    25
100
AcDbLine
 10
8008.4880191839
 20
13609.2400733715
 30
0.0
 11
8044.0879661596
 21
13609.2400733715
 31
0.0
  0
LINE
  5
1B2
330
1F
100
AcDbEntity
  8
0
  6
Continuous
 62
     8
 48
50.0
370
    25
100
AcDbLine
 10
8008.4880191839
 20
13604.588884521
 30
0.0
 11
8044.0879661596
 21
13604.588884521
 31
0.0
  0
LINE
  5
1B3
330
1F
100
AcDbEntity
  8
0
  6
Continuous
 62
     8
 48
50.0
370
    25
100
AcDbLine
 10
9183.8880378759
 20
13609.2400733715
 30
0.0
 11
9203.0880350626
 21
13609.2400733715
 31
0.0
  0
LINE
  5
1B4
330
1F
100
AcDbEntity
  8
0
  6
Continuous
 62
     8
 48
50.0
370
    25
100
AcDbLine
 10
9183.8880378759
 20
13604.588884521
 30
0.0
 11
9203.0880350626
 21
13604.588884521
 31
0.0
  0
LINE
  5
1B5
330
1F
100
AcDbEntity
  8
0
  6
Continuous
 62
     8
 48
50.0
370
    25
100
AcDbLine
 10
10342.8880173719
 20
13604.588884521
 30
0.0
 11
10378.4880239523
 21
13604.588884521
 31
0.0
  0
LINE
  5
1B6
330
1F
100
AcDbEntity
  8
0
  6
Continuous
 62
     8
 48
50.0
370
    25
100
AcDbLine
 10
10342.8880173719
 20
13609.2400733715
 30
0.0
 11
10378.4880239523
 21
13609.2400733715
 31
0.0
  0
LINE
  5
1B7
330
1F
100
AcDbEntity
  8
0
  6
Continuous
 62
     8
 48
50.0
370
    25
100
AcDbLine
 10
8008.4880191839
 20
13520.3021947627
 30
0.0
 11
8043.9880687749
 21
13520.3021947627
 31
0.0
  0
LINE
  5
1B8
330
1F
100
AcDbEntity
  8
0
  6
Continuous
 62
     8
 48
50.0
370
    25
100
AcDbLine
 10
10342.9880339658
 20
13520.3021947627
 30
0.0
 11
10378.4880239523
 21
13520.3021947627
 31
0.0
  0
LINE
  5
1B9
330
1F
100
AcDbEntity
  8
0
  6
Continuous
 62
     8
 48
50.0
370
    25
100
AcDbLine
 10
9183.9880246675
 20
13520.3021947627
 30
0.0
 11
9202.9880184686
 21
13520.3021947627
 31
0.0
  0
LINE
  5
1BA
330
1F
100
AcDbEntity
  8
0
  6
Continuous
 62
     8
 48
50.0
370
    25
100
AcDbLine
 10
8008.4880191839
 20
13627.4126950984
 30
0.0
 11
8044.0879661596
 21
13627.4126950984
 31
0.0
  0
LINE
  5
1BB
330
1F
100
AcDbEntity
  8
0
  6
Continuous
 62
     8
 48
50.0
370
    25
100
AcDbLine
 10
9183.8880378759
 20
13627.4126950984
 30
0.0
 11
9203.0880350626
 21
13627.4126950984
 31
0.0
  0
LINE
  5
1BC
330
1F
100
AcDbEntity
  8
0
  6
Continuous
 62
     8
 48
50.0
370
    25
100
AcDbLine
 10
10342.8880173719
 20
13627.4126950984
 30
0.0
 11
10378.4880239523
 21
13627.4126950984
 31
0.0
  0
LINE
  5
1BD
330
1F
100
AcDbEntity
  8
0
  6
Continuous
 62
     8
 48
50.0
370
    25
100
AcDbLine
 10
8027.4947483099
 20
13538.1413881069
 30
0.0
 11
8039.4812423742
 21
13538.1413881069
 31
0.0
  0
LINE
  5
1BE
330
1F
100
AcDbEntity
  8
0
  6
Continuous
 62
     8
 48
50.0
370
    25
100
AcDbLine
 10
10347.4948007619
 20
13538.1413881069
 30
0.0
 11
10359.4812948263
 21
13538.1413881069
 31
0.0
  0
LINE
  5
1BF
330
1F
100
AcDbEntity
  8
0
  6
Continuous
 62
     8
 48
50.0
370
    25
100
AcDbLine
 10
8027.0845491445
 20
13540.7992784267
 30
0.0
 11
8039.8915607488
 21
13540.7992784267
 31
0.0
  0
LINE
  5
1C0
330
1F
100
AcDbEntity
  8
0
  6
Continuous
 62
     8
 48
50.0
370
    25
100
AcDbLine
 10
10347.084541992
 20
13540.7992784267
 30
0.0
 11
10359.8914939916
 21
13540.7992784267
 31
0.0
  0
LINE
  5
1C1
330
1F
100
AcDbEntity
  8
0
  6
Continuous
 62
     8
 48
50.0
370
    25
100
AcDbLine
 10
8008.4880191839
 20
14504.76827066
 30
0.0
 11
8043.9880687749
 21
14504.76827066
 31
0.0
  0
LINE
  5
1C2
330
1F
100
AcDbEntity
  8
0
  6
Continuous
 62
     8
 48
50.0
370
    25
100
AcDbLine
 10
8008.4880191839
 20
14500.1169626003
 30
0.0
 11
8043.9880687749
 21
14500.1169626003
 31
0.0
  0
LINE
  5
1C3
330
1F
100
AcDbEntity
  8
0
  6
Continuous
 62
     8
 48
50.0
370
    25
100
AcDbLine
 10
9183.9880246675
 20
14504.76827066
 30
0.0
 11
9202.9880184686
 21
14504.76827066
 31
0.0
  0
LINE
  5
1C4
330
1F
100
AcDbEntity
  8
0
  6
Continuous
 62
     8
 48
50.0
370
    25
100
AcDbLine
 10
9183.9880246675
 20
14500.1169626003
 30
0.0
 11
9202.9880184686
 21
14500.1169626003
 31
0.0
  0
LINE
  5
1C5
330
1F
100
AcDbEntity
  8
0
  6
Continuous
 62
     8
 48
50.0
370
    25
100
AcDbLine
 10
10342.9880339658
 20
14500.1169626003
 30
0.0
 11
10378.4880239523
 21
14500.1169626003
 31
0.0
  0
LINE
  5
1C6
330
1F
100
AcDbEntity
  8
0
  6
Continuous
 62
     8
 48
50.0
370
    25
100
AcDbLine
 10
10342.9880339658
 20
14504.76827066
 30
0.0
 11
10378.4880239523
 21
14504.76827066
 31
0.0
  0
LINE
  5
1C7
330
1F
100
AcDbEntity
  8
0
  6
Continuous
 62
     8
 48
50.0
370
    25
100
AcDbLine
 10
8008.4880191839
 20
14415.830272842
 30
0.0
 11
8043.9880687749
 21
14415.830272842
 31
0.0
  0
LINE
  5
1C8
330
1F
100
AcDbEntity
  8
0
  6
Continuous
 62
     8
 48
50.0
370
    25
100
AcDbLine
 10
10342.9880339658
 20
14415.830272842
 30
0.0
 11
10378.4880239523
 21
14415.830272842
 31
0.0
  0
LINE
  5
1C9
330
1F
100
AcDbEntity
  8
0
  6
Continuous
 62
     8
 48
50.0
370
    25
100
AcDbLine
 10
9183.9880246675
 20
14415.830272842
 30
0.0
 11
9202.9880184686
 21
14415.830272842
 31
0.0
  0
LINE
  5
1CA
330
1F
100
AcDbEntity
  8
0
  6
Continuous
 62
     8
 48
50.0
370
    25
100
AcDbLine
 10
8008.4880191839
 20
14522.9407731777
 30
0.0
 11
8043.9880687749
 21
14522.9407731777
 31
0.0
  0
LINE
  5
1CB
330
1F
100
AcDbEntity
  8
0
  6
Continuous
 62
     8
 48
50.0
370
    25
100
AcDbLine
 10
9183.9880246675
 20
14522.9407731777
 30
0.0
 11
9202.9880184686
 21
14522.9407731777
 31
0.0
  0
LINE
  5
1CC
330
1F
100
AcDbEntity
  8
0
  6
Continuous
 62
     8
 48
50.0
370
    25
100
AcDbLine
 10
10342.9880339658
 20
14522.9407731777
 30
0.0
 11
10378.4880239523
 21
14522.9407731777
 31
0.0
  0
LINE
  5
1CD
330
1F
100
AcDbEntity
  8
0
  6
Continuous
 62
     8
 48
50.0
370
    25
100
AcDbLine
 10
8027.4947483099
 20
14433.6694661861
 30
0.0
 11
8039.4812423742
 21
14433.6694661861
 31
0.0
  0
LINE
  5
1CE
330
1F
100
AcDbEntity
  8
0
  6
Continuous
 62
     8
 48
50.0
370
    25
100
AcDbLine
 10
10347.4948007619
 20
14433.6694661861
 30
0.0
 11
10359.4812948263
 21
14433.6694661861
 31
0.0
  0
LINE
  5
1CF
330
1F
100
AcDbEntity
  8
0
  6
Continuous
 62
     8
 48
50.0
370
    25
100
AcDbLine
 10
8027.0845491445
 20
14436.3273565059
 30
0.0
 11
8039.8915607488
 21
14436.3273565059
 31
0.0
  0
LINE
  5
1D0
330
1F
100
AcDbEntity
  8
0
  6
Continuous
 62
     8
 48
50.0
370
    25
100
AcDbLine
 10
10347.084541992
 20
14436.3273565059
 30
0.0
 11
10359.8914939916
 21
14436.3273565059
 31
0.0
  0
LINE
  5
1D1
330
1F
100
AcDbEntity
  8
0
  6
Continuous
 62
     8
 48
50.0
370
    25
100
AcDbLine
 10
8343.9880210912
 20
12830.1433507686
 30
0.0
 11
8343.9880210912
 21
10748.6729804759
 31
0.0
  0
LINE
  5
1D2
330
1F
100
AcDbEntity
  8
0
  6
Continuous
 62
     8
 48
50.0
370
    25
100
AcDbLine
 10
8292.9880220449
 20
12830.1433507686
 30
0.0
 11
8292.9880220449
 21
10748.6729804759
 31
0.0
  0
LINE
  5
1D3
330
1F
100
AcDbEntity
  8
0
  6
Continuous
 62
     8
 48
50.0
370
    25
100
AcDbLine
 10
10162.9880268133
 20
12830.1433507686
 30
0.0
 11
10162.9880268133
 21
10748.6729804759
 31
0.0
  0
LINE
  5
1D4
330
1F
100
AcDbEntity
  8
0
  6
Continuous
 62
     8
 48
50.0
370
    25
100
AcDbLine
 10
10213.9880258596
 20
12830.1433507686
 30
0.0
 11
10213.9880258596
 21
10748.6729804759
 31
0.0
  0
DIMENSION
  5
1D5
330
1F
100
AcDbEntity
  8
0
  6
Continuous
 62
     7
 48
50.0
370
    18
100
AcDbDimension
  2
_D
 10
9183.9880239434
 20
15105.8706825781
 30
0.0
 11
8717.642233455
 21
15105.8706825782
 31
0.0
 70
   160
  1
<>
 71
     2
 42
-1.0
  3
SLDDIMSTYLE0
100
AcDbAlignedDimension
 13
8043.9880239433
 23
14801.5646738589
 33
0.0
 14
9183.9880239433
 24
14801.5646738589
 34
0.0
 50
0.0
100
AcDbRotatedDimension
  0
DIMENSION
  5
1E3
330
1F
100
AcDbEntity
  8
0
  6
Continuous
 62
     7
 48
50.0
370
    18
100
AcDbDimension
  2
_D_1
 10
10188.4880239522
 20
10564.8401121951
 30
0.0
 11
9189.0259419777
 21
10564.8401121951
 31
0.0
 70
   160
  1
<>
 71
     2
 42
-1.0
  3
SLDDIMSTYLE1
100
AcDbAlignedDimension
 13
8318.4880239522
 23
12778.6729566342
 33
0.0
 14
10188.4880239522
 24
12778.6729566342
 34
0.0
100
AcDbRotatedDimension
  0
LINE
  5
1EE
330
1F
100
AcDbEntity
  8
0
  6
Continuous
 62
     7
 48
50.0
370
    25
100
AcDbLine
 10
16004.6464321597
 20
14681.1183873897
 30
0.0
 11
15987.7416012271
 21
14644.8661271816
 31
0.0
  0
LINE
  5
1EF
330
1F
100
AcDbEntity
  8
0
  6
Continuous
 62
     7
 48
50.0
370
    25
100
AcDbLine
 10
15729.443681
 20
14765.3123323207
 30
0.0
 11
15987.7416012271
 21
14644.8661271816
 31
0.0
  0
LINE
  5
1F0
330
1F
100
AcDbEntity
  8
0
  6
Continuous
 62
     7
 48
50.0
370
    25
100
AcDbLine
 10
15729.443681
 20
14765.3123323207
 30
0.0
 11
15746.3485119326
 21
14801.5645925289
 31
0.0
  0
LINE
  5
1F1
330
1F
100
AcDbEntity
  8
0
  6
Continuous
 62
     7
 48
50.0
370
    25
100
AcDbLine
 10
15746.3485119326
 20
14801.5645925289
 30
0.0
 11
16004.6464321597
 21
14681.1183873897
 31
0.0
  0
LINE
  5
1F2
330
1F
100
AcDbEntity
  8
0
  6
Continuous
 62
     7
 48
50.0
370
    25
100
AcDbLine
 10
17795.8251354678
 20
13801.7426912075
 30
0.0
 11
17812.7299664004
 21
13837.9950706249
 31
0.0
  0
LINE
  5
1F3
330
1F
100
AcDbEntity
  8
0
  6
Continuous
 62
     7
 48
50.0
370
    25
100
AcDbLine
 10
17537.528168915
 20
13922.1888963466
 30
0.0
 11
17554.4329998477
 21
13958.441275764
 31
0.0
  0
LINE
  5
1F4
330
1F
100
AcDbEntity
  8
0
  6
Continuous
 62
     7
 48
50.0
370
    25
100
AcDbLine
 10
17537.528168915
 20
13922.1888963466
 30
0.0
 11
17795.8251354678
 21
13801.7426912075
 31
0.0
  0
LINE
  5
1F5
330
1F
100
AcDbEntity
  8
0
  6
Continuous
 62
     7
 48
50.0
370
    25
100
AcDbLine
 10
17554.4329998477
 20
13958.441275764
 30
0.0
 11
17812.7299664004
 21
13837.9950706249
 31
0.0
  0
LINE
  5
1F6
330
1F
100
AcDbEntity
  8
0
  6
Continuous
 62
     7
 48
50.0
370
    25
100
AcDbLine
 10
16246.0395214541
 20
14524.4199220424
 30
0.0
 11
16262.9443523867
 21
14560.6721822505
 31
0.0
  0
LINE
  5
1F7
330
1F
100
AcDbEntity
  8
0
  6
Continuous
 62
     7
 48
50.0
370
    25
100
AcDbLine
 10
17296.1350796206
 20
14078.8874809032
 30
0.0
 11
17279.230248688
 21
14042.6351014858
 31
0.0
  0
LINE
  5
1F8
330
1F
100
AcDbEntity
  8
0
  6
Continuous
 62
     7
 48
50.0
370
    25
100
AcDbLine
 10
16246.0395214541
 20
14524.4199220424
 30
0.0
 11
16249.2114422305
 21
14522.9407731777
 31
0.0
  0
LINE
  5
1F9
330
1F
100
AcDbEntity
  8
0
  6
Continuous
 62
     7
 48
50.0
370
    25
100
AcDbLine
 10
16288.1823894961
 20
14504.76827066
 30
0.0
 11
17279.230248688
 21
14042.6351014858
 31
0.0
  0
LINE
  5
1FA
330
1F
100
AcDbEntity
  8
0
  6
Continuous
 62
     7
 48
50.0
370
    25
100
AcDbLine
 10
16262.9443523867
 20
14560.6721822505
 30
0.0
 11
17296.1350796206
 21
14078.8874809032
 31
0.0
  0
LINE
  5
1FB
330
1F
100
AcDbEntity
  8
0
  6
Continuous
 62
     7
 48
50.0
370
    25
100
AcDbLine
 10
15987.7416012271
 20
14644.8661271816
 30
0.0
 11
16246.0395214541
 21
14524.4199220424
 31
0.0
  0
LINE
  5
1FC
330
1F
100
AcDbEntity
  8
0
  6
Continuous
 62
     7
 48
50.0
370
    25
100
AcDbLine
 10
16262.9443523867
 20
14560.6721822505
 30
0.0
 11
16004.6464321597
 21
14681.1183873897
 31
0.0
  0
LINE
  5
1FD
330
1F
100
AcDbEntity
  8
0
  6
Continuous
 62
     7
 48
50.0
370
    25
100
AcDbLine
 10
17279.230248688
 20
14042.6351014858
 30
0.0
 11
17482.6966640933
 21
13947.7573816066
 31
0.0
  0
LINE
  5
1FE
330
1F
100
AcDbEntity
  8
0
  6
Continuous
 62
     7
 48
50.0
370
    25
100
AcDbLine
 10
17521.6676113589
 20
13929.5847598796
 30
0.0
 11
17537.528168915
 21
13922.1888963466
 31
0.0
  0
LINE
  5
1FF
330
1F
100
AcDbEntity
  8
0
  6
Continuous
 62
     7
 48
50.0
370
    25
100
AcDbLine
 10
17554.4329998477
 20
13958.441275764
 30
0.0
 11
17296.1350796206
 21
14078.8874809032
 31
0.0
  0
LINE
  5
200
330
1F
100
AcDbEntity
  8
0
  6
Continuous
 62
     7
 48
50.0
370
    25
100
AcDbLine
 10
18088.2474300845
 20
13709.5190469509
 30
0.0
 11
18071.3435528262
 21
13673.2667867427
 31
0.0
  0
LINE
  5
201
330
1F
100
AcDbEntity
  8
0
  6
Continuous
 62
     7
 48
50.0
370
    25
100
AcDbLine
 10
17813.0456325991
 20
13793.7129918819
 30
0.0
 11
17829.9504635317
 21
13829.96525209
 31
0.0
  0
LINE
  5
202
330
1F
100
AcDbEntity
  8
0
  6
Continuous
 62
     7
 48
50.0
370
    25
100
AcDbLine
 10
17813.0456325991
 20
13793.7129918819
 30
0.0
 11
18071.3435528262
 21
13673.2667867427
 31
0.0
  0
LINE
  5
203
330
1F
100
AcDbEntity
  8
0
  6
Continuous
 62
     7
 48
50.0
370
    25
100
AcDbLine
 10
17829.9504635317
 20
13829.96525209
 30
0.0
 11
18088.2474300845
 21
13709.5190469509
 31
0.0
  0
LINE
  5
204
330
1F
100
AcDbEntity
  8
0
  6
Continuous
 62
     7
 48
50.0
370
    25
100
AcDbLine
 10
19879.4270870669
 20
12830.1433507686
 30
0.0
 11
19896.3319179995
 21
12866.3956705814
 31
0.0
  0
LINE
  5
205
330
1F
100
AcDbEntity
  8
0
  6
Continuous
 62
     7
 48
50.0
370
    25
100
AcDbLine
 10
19621.1291668398
 20
12950.5895559078
 30
0.0
 11
19638.0339977725
 21
12986.8418757205
 31
0.0
  0
LINE
  5
206
330
1F
100
AcDbEntity
  8
0
  6
Continuous
 62
     7
 48
50.0
370
    25
100
AcDbLine
 10
19621.1291668398
 20
12950.5895559078
 30
0.0
 11
19879.4270870669
 21
12830.1433507686
 31
0.0
  0
LINE
  5
207
330
1F
100
AcDbEntity
  8
0
  6
Continuous
 62
     7
 48
50.0
370
    25
100
AcDbLine
 10
19638.0339977725
 20
12986.8418757205
 30
0.0
 11
19896.3319179995
 21
12866.3956705814
 31
0.0
  0
LINE
  5
208
330
1F
100
AcDbEntity
  8
0
  6
Continuous
 62
     7
 48
50.0
370
    25
100
AcDbLine
 10
18329.6405193789
 20
13552.8205816036
 30
0.0
 11
18346.5453503115
 21
13589.0728418117
 31
0.0
  0
LINE
  5
209
330
1F
100
AcDbEntity
  8
0
  6
Continuous
 62
     7
 48
50.0
370
    25
100
AcDbLine
 10
19379.7360775454
 20
13107.2880808597
 30
0.0
 11
19362.8322002871
 21
13071.0357610469
 31
0.0
  0
LINE
  5
20A
330
1F
100
AcDbEntity
  8
0
  6
Continuous
 62
     7
 48
50.0
370
    25
100
AcDbLine
 10
18329.6405193789
 20
13552.8205816036
 30
0.0
 11
19362.8322002871
 21
13071.0357610469
 31
0.0
  0
LINE
  5
20B
330
1F
100
AcDbEntity
  8
0
  6
Continuous
 62
     7
 48
50.0
370
    25
100
AcDbLine
 10
18346.5453503115
 20
13589.0728418117
 30
0.0
 11
19379.7360775454
 21
13107.2880808597
 31
0.0
  0
LINE
  5
20C
330
1F
100
AcDbEntity
  8
0
  6
Continuous
 62
     7
 48
50.0
370
    25
100
AcDbLine
 10
18071.3435528262
 20
13673.2667867427
 30
0.0
 11
18169.6778652651
 21
13627.4126950984
 31
0.0
  0
LINE
  5
20D
330
1F
100
AcDbEntity
  8
0
  6
Continuous
 62
     7
 48
50.0
370
    25
100
AcDbLine
 10
18208.6488125308
 20
13609.2400733715
 30
0.0
 11
18329.6405193789
 21
13552.8205816036
 31
0.0
  0
LINE
  5
20E
330
1F
100
AcDbEntity
  8
0
  6
Continuous
 62
     7
 48
50.0
370
    25
100
AcDbLine
 10
18346.5453503115
 20
13589.0728418117
 30
0.0
 11
18088.2474300845
 21
13709.5190469509
 31
0.0
  0
LINE
  5
20F
330
1F
100
AcDbEntity
  8
0
  6
Continuous
 62
     7
 48
50.0
370
    25
100
AcDbLine
 10
19362.8322002871
 20
13071.0357610469
 30
0.0
 11
19403.1621334536
 21
13052.2292439228
 31
0.0
  0
LINE
  5
210
330
1F
100
AcDbEntity
  8
0
  6
Continuous
 62
     7
 48
50.0
370
    25
100
AcDbLine
 10
19442.1340343936
 20
13034.0566818004
 30
0.0
 11
19621.1291668398
 21
12950.5895559078
 31
0.0
  0
LINE
  5
211
330
1F
100
AcDbEntity
  8
0
  6
Continuous
 62
     7
 48
50.0
370
    25
100
AcDbLine
 10
19638.0339977725
 20
12986.8418757205
 30
0.0
 11
19379.7360775454
 21
13107.2880808597
 31
0.0
  0
LINE
  5
212
330
1F
100
AcDbEntity
  8
0
  6
Continuous
 62
     7
 48
50.0
370
    25
100
AcDbLine
 10
16636.4995357974
 20
12908.6729470973
 30
0.0
 11
16636.4995357974
 21
12748.6729804759
 31
0.0
  0
LINE
  5
213
330
1F
100
AcDbEntity
  8
0
  6
Continuous
 62
     7
 48
50.0
370
    25
100
AcDbLine
 10
16711.9990704043
 20
12908.6729470973
 30
0.0
 11
16636.4995357974
 21
12908.6729470973
 31
0.0
  0
LINE
  5
214
330
1F
100
AcDbEntity
  8
0
  6
Continuous
 62
     7
 48
50.0
370
    25
100
AcDbLine
 10
16731.999528168
 20
12888.6729661708
 30
0.0
 11
16711.9990704043
 21
12908.6729470973
 31
0.0
  0
LINE
  5
215
330
1F
100
AcDbEntity
  8
0
  6
Continuous
 62
     7
 48
50.0
370
    25
100
AcDbLine
 10
16731.999528168
 20
12888.6729661708
 30
0.0
 11
16731.999528168
 21
12768.6729614025
 31
0.0
  0
LINE
  5
216
330
1F
100
AcDbEntity
  8
0
  6
Continuous
 62
     7
 48
50.0
370
    25
100
AcDbLine
 10
16711.9990704043
 20
12748.6729804759
 30
0.0
 11
16731.999528168
 21
12768.6729614025
 31
0.0
  0
LINE
  5
217
330
1F
100
AcDbEntity
  8
0
  6
Continuous
 62
     7
 48
50.0
370
    25
100
AcDbLine
 10
16711.9990704043
 20
12748.6729804759
 30
0.0
 11
16636.4995357974
 21
12748.6729804759
 31
0.0
  0
CIRCLE
  5
218
330
1F
100
AcDbEntity
  8
0
  6
Continuous
 62
     7
 48
2500.0
370
    25
100
AcDbCircle
 10
16696.999490021
 20
12828.6729566344
 30
0.0
 40
6.5
  0
CIRCLE
  5
219
330
1F
100
AcDbEntity
  8
0
  6
Continuous
 62
     7
 48
2500.0
370
    25
100
AcDbCircle
 10
16696.999490021
 20
12788.6729566344
 30
0.0
 40
6.5
  0
CIRCLE
  5
21A
330
1F
100
AcDbEntity
  8
0
  6
Continuous
 62
     7
 48
2500.0
370
    25
100
AcDbCircle
 10
16696.999490021
 20
12868.6729566344
 30
0.0
 40
6.499999999996362
  0
LINE
  5
21B
330
1F
100
AcDbEntity
  8
0
  6
Continuous
 62
     7
 48
50.0
370
    25
100
AcDbLine
 10
16631.9991466982
 20
12908.6729470973
 30
0.0
 11
16631.9991466982
 21
12748.6729804759
 31
0.0
  0
LINE
  5
21C
330
1F
100
AcDbEntity
  8
0
  6
Continuous
 62
     7
 48
50.0
370
    25
100
AcDbLine
 10
16636.4995357974
 20
12908.6729470973
 30
0.0
 11
16631.9991466982
 21
12908.6729470973
 31
0.0
  0
LINE
  5
21D
330
1F
100
AcDbEntity
  8
0
  6
Continuous
 62
     7
 48
50.0
370
    25
100
AcDbLine
 10
16636.4995357974
 20
12748.6729804759
 30
0.0
 11
16631.9991466982
 21
12748.6729804759
 31
0.0
  0
LINE
  5
21E
330
1F
100
AcDbEntity
  8
0
  6
Continuous
 62
     7
 48
50.0
370
    25
100
AcDbLine
 10
17691.2061092837
 20
13683.9174215084
 30
0.0
 11
17680.3227779849
 21
13674.6485416179
 31
0.0
  0
LINE
  5
21F
330
1F
100
AcDbEntity
  8
0
  6
Continuous
 62
     7
 48
50.0
370
    25
100
AcDbLine
 10
17693.2793972476
 20
13668.6070148235
 30
0.0
 11
17704.1627285464
 21
13677.8758947139
 31
0.0
  0
LINE
  5
220
330
1F
100
AcDbEntity
  8
0
  6
Continuous
 62
     7
 48
50.0
370
    25
100
AcDbLine
 10
16692.3562405093
 20
12864.1239587551
 30
0.0
 11
16702.229630707
 21
12872.5323263889
 31
0.0
  0
LINE
  5
221
330
1F
100
AcDbEntity
  8
0
  6
Continuous
 62
     7
 48
50.0
370
    25
100
AcDbLine
 10
16727.0242092593
 20
12893.6482850795
 30
0.0
 11
17614.2054913027
 21
13649.2074910884
 31
0.0
  0
LINE
  5
222
330
1F
100
AcDbEntity
  8
0
  6
Continuous
 62
     7
 48
50.0
370
    25
100
AcDbLine
 10
16691.7697308047
 20
12784.8136011844
 30
0.0
 11
16701.6421673281
 21
12793.2219688182
 31
0.0
  0
LINE
  5
223
330
1F
100
AcDbEntity
  8
0
  6
Continuous
 62
     7
 48
50.0
370
    25
100
AcDbLine
 10
16731.999528168
 20
12819.075245071
 30
0.0
 11
17674.00277829
 21
13621.3233653789
 31
0.0
  0
LINE
  5
224
330
1F
100
AcDbEntity
  8
0
  6
Continuous
 62
     7
 48
50.0
370
    25
100
AcDbLine
 10
17471.0713741763
 20
13931.1104003673
 30
0.0
 11
17478.0446407778
 21
13946.0643712764
 31
0.0
  0
LINE
  5
225
330
1F
100
AcDbEntity
  8
0
  6
Continuous
 62
     7
 48
50.0
370
    25
100
AcDbLine
 10
17479.404580353
 20
13945.4305354839
 30
0.0
 11
17478.0446407778
 21
13946.0643712764
 31
0.0
  0
LINE
  5
226
330
1F
100
AcDbEntity
  8
0
  6
Continuous
 62
     7
 48
50.0
370
    25
100
AcDbLine
 10
17471.0713741763
 20
13931.1104003673
 30
0.0
 11
17472.4313137515
 21
13930.4764453655
 31
0.0
  0
LINE
  5
227
330
1F
100
AcDbEntity
  8
0
  6
Continuous
 62
     7
 48
50.0
370
    25
100
AcDbLine
 10
17472.4313137515
 20
13930.4764453655
 30
0.0
 11
17479.404580353
 21
13945.4305354839
 31
0.0
  0
LINE
  5
228
330
1F
100
AcDbEntity
  8
0
  6
Continuous
 62
     7
 48
50.0
370
    25
100
AcDbLine
 10
17521.0334179385
 20
13928.2252971416
 30
0.0
 11
17521.6676113589
 21
13929.5847598796
 31
0.0
  0
LINE
  5
229
330
1F
100
AcDbEntity
  8
0
  6
Continuous
 62
     7
 48
50.0
370
    25
100
AcDbLine
 10
17482.6966640933
 20
13947.7573816066
 30
0.0
 11
17482.0624706729
 21
13946.3979188686
 31
0.0
  0
LINE
  5
22A
330
1F
100
AcDbEntity
  8
0
  6
Continuous
 62
     7
 48
50.0
370
    25
100
AcDbLine
 10
17482.6966640933
 20
13947.7573816066
 30
0.0
 11
17521.6676113589
 21
13929.5847598796
 31
0.0
  0
LINE
  5
22B
330
1F
100
AcDbEntity
  8
0
  6
Continuous
 62
     7
 48
50.0
370
    25
100
AcDbLine
 10
17482.0624706729
 20
13946.3979188686
 30
0.0
 11
17521.0334179385
 21
13928.2252971416
 31
0.0
  0
LINE
  5
22C
330
1F
100
AcDbEntity
  8
0
  6
Continuous
 62
     7
 48
50.0
370
    25
100
AcDbLine
 10
17523.3603832705
 20
13924.9334518199
 30
0.0
 11
17522.0013973696
 21
13925.5674068218
 31
0.0
  0
ARC
  5
22D
330
1F
100
AcDbEntity
  8
0
  6
Continuous
 62
     7
 48
2500.0
370
    25
100
AcDbCircle
 10
17520.1883117041
 20
13926.4126725305
 30
0.0
 40
3.500000000031243
100
AcDbArc
 50
335.000000001
 51
65.0000000003
  0
ARC
  5
22E
330
1F
100
AcDbEntity
  8
0
  6
Continuous
 62
     7
 48
2500.0
370
    25
100
AcDbCircle
 10
17520.1883117041
 20
13926.4126725305
 30
0.0
 40
2.000000000029825
100
AcDbArc
 50
335.0000000004
 51
65.0000000004
  0
LINE
  5
22F
330
1F
100
AcDbEntity
  8
0
  6
Continuous
 62
     7
 48
50.0
370
    25
100
AcDbLine
 10
17441.0687801821
 20
13858.486074615
 30
0.0
 11
17440.4345867617
 21
13857.126611877
 31
0.0
  0
LINE
  5
230
330
1F
100
AcDbEntity
  8
0
  6
Continuous
 62
     7
 48
50.0
370
    25
100
AcDbLine
 10
17479.4055340273
 20
13838.95399015
 30
0.0
 11
17480.0397274478
 21
13840.3134528881
 31
0.0
  0
LINE
  5
231
330
1F
100
AcDbEntity
  8
0
  6
Continuous
 62
     7
 48
50.0
370
    25
100
AcDbLine
 10
17479.4055340273
 20
13838.95399015
 30
0.0
 11
17440.4345867617
 21
13857.126611877
 31
0.0
  0
LINE
  5
232
330
1F
100
AcDbEntity
  8
0
  6
Continuous
 62
     7
 48
50.0
370
    25
100
AcDbLine
 10
17480.0397274478
 20
13840.3134528881
 30
0.0
 11
17441.0687801821
 21
13858.486074615
 31
0.0
  0
LINE
  5
233
330
1F
100
AcDbEntity
  8
0
  6
Continuous
 62
     7
 48
50.0
370
    25
100
AcDbLine
 10
17482.6976177676
 20
13841.2808362728
 30
0.0
 11
17484.0566036685
 21
13840.6468812709
 31
0.0
  0
ARC
  5
234
330
1F
100
AcDbEntity
  8
0
  6
Continuous
 62
     7
 48
2500.0
370
    25
100
AcDbCircle
 10
17480.8848133622
 20
13842.1260483361
 30
0.0
 40
3.499999999992984
100
AcDbArc
 50
245.0000000001
 51
335.0000000005
  0
ARC
  5
235
330
1F
100
AcDbEntity
  8
0
  6
Continuous
 62
     7
 48
2500.0
370
    25
100
AcDbCircle
 10
17480.8848133622
 20
13842.1260483361
 30
0.0
 40
2.000000000003012
100
AcDbArc
 50
245.0000000009
 51
335.0000000005
  0
ARC
  5
236
330
1F
100
AcDbEntity
  8
0
  6
Continuous
 62
     7
 48
2500.0
370
    25
100
AcDbCircle
 10
17441.9135785196
 20
13860.2986335909
 30
0.0
 40
3.500000000001227
100
AcDbArc
 50
154.9999999997
 51
245.0000000001
  0
LINE
  5
237
330
1F
100
AcDbEntity
  8
0
  6
Continuous
 62
     7
 48
50.0
370
    25
100
AcDbLine
 10
17438.7418148501
 20
13861.7778007274
 30
0.0
 11
17440.100800751
 21
13861.1438457256
 31
0.0
  0
ARC
  5
238
330
1F
100
AcDbEntity
  8
0
  6
Continuous
 62
     7
 48
2500.0
370
    25
100
AcDbCircle
 10
17441.9135785196
 20
13860.2986335909
 30
0.0
 40
1.9999999999762
100
AcDbArc
 50
154.9999999996
 51
245.0000000005
  0
LINE
  5
239
330
1F
100
AcDbEntity
  8
0
  6
Continuous
 62
     7
 48
50.0
370
    25
100
AcDbLine
 10
17447.0740673525
 20
13876.097935844
 30
0.0
 11
17445.7150814517
 21
13876.7318908458
 31
0.0
  0
LINE
  5
23A
330
1F
100
AcDbEntity
  8
0
  6
Continuous
 62
     7
 48
50.0
370
    25
100
AcDbLine
 10
17440.100800751
 20
13861.1438457256
 30
0.0
 11
17447.0740673525
 21
13876.097935844
 31
0.0
  0
LINE
  5
23B
330
1F
100
AcDbEntity
  8
0
  6
Continuous
 62
     7
 48
50.0
370
    25
100
AcDbLine
 10
17438.7418148501
 20
13861.7778007274
 30
0.0
 11
17445.7150814517
 21
13876.7318908458
 31
0.0
  0
LINE
  5
23C
330
1F
100
AcDbEntity
  8
0
  6
Continuous
 62
     7
 48
50.0
370
    25
100
AcDbLine
 10
17523.3603832705
 20
13924.9334518199
 30
0.0
 11
17484.0566036685
 21
13840.6468812709
 31
0.0
  0
LINE
  5
23D
330
1F
100
AcDbEntity
  8
0
  6
Continuous
 62
     7
 48
50.0
370
    25
100
AcDbLine
 10
17522.0013973696
 20
13925.5674068218
 30
0.0
 11
17482.6976177676
 21
13841.2808362728
 31
0.0
  0
ARC
  5
23E
330
1F
100
AcDbEntity
  8
0
  6
Continuous
 62
     7
 48
2500.0
370
    25
100
AcDbCircle
 10
17481.2170768615
 20
13944.5852577853
 30
0.0
 40
2.00000000002751
100
AcDbArc
 50
64.9999999997
 51
154.9999999992
  0
ARC
  5
23F
330
1F
100
AcDbEntity
  8
0
  6
Continuous
 62
     7
 48
2500.0
370
    25
100
AcDbCircle
 10
17481.2170768615
 20
13944.5852577853
 30
0.0
 40
3.500000000018805
100
AcDbArc
 50
64.9999999999
 51
154.9999999998
  0
LINE
  5
240
330
1F
100
AcDbEntity
  8
0
  6
Continuous
 62
     7
 48
50.0
370
    25
100
AcDbLine
 10
19391.5377972109
 20
13035.5822626834
 30
0.0
 11
19398.5110638125
 21
13050.5363528018
 31
0.0
  0
LINE
  5
241
330
1F
100
AcDbEntity
  8
0
  6
Continuous
 62
     7
 48
50.0
370
    25
100
AcDbLine
 10
19399.8710033877
 20
13049.9023978
 30
0.0
 11
19398.5110638125
 21
13050.5363528018
 31
0.0
  0
LINE
  5
242
330
1F
100
AcDbEntity
  8
0
  6
Continuous
 62
     7
 48
50.0
370
    25
100
AcDbLine
 10
19391.5377972109
 20
13035.5822626834
 30
0.0
 11
19392.8977367861
 21
13034.9483076816
 31
0.0
  0
LINE
  5
243
330
1F
100
AcDbEntity
  8
0
  6
Continuous
 62
     7
 48
50.0
370
    25
100
AcDbLine
 10
19392.8977367861
 20
13034.9483076816
 30
0.0
 11
19399.8710033877
 21
13049.9023978
 31
0.0
  0
LINE
  5
244
330
1F
100
AcDbEntity
  8
0
  6
Continuous
 62
     7
 48
50.0
370
    25
100
AcDbLine
 10
19441.4998409731
 20
13032.6972190624
 30
0.0
 11
19442.1340343936
 21
13034.0566818004
 31
0.0
  0
LINE
  5
245
330
1F
100
AcDbEntity
  8
0
  6
Continuous
 62
     7
 48
50.0
370
    25
100
AcDbLine
 10
19403.1621334536
 20
13052.2292439228
 30
0.0
 11
19402.5288937075
 21
13050.8697811847
 31
0.0
  0
LINE
  5
246
330
1F
100
AcDbEntity
  8
0
  6
Continuous
 62
     7
 48
50.0
370
    25
100
AcDbLine
 10
19403.1621334536
 20
13052.2292439228
 30
0.0
 11
19442.1340343936
 21
13034.0566818004
 31
0.0
  0
LINE
  5
247
330
1F
100
AcDbEntity
  8
0
  6
Continuous
 62
     7
 48
50.0
370
    25
100
AcDbLine
 10
19402.5288937075
 20
13050.8697811847
 30
0.0
 11
19441.4998409731
 21
13032.6972190624
 31
0.0
  0
LINE
  5
248
330
1F
100
AcDbEntity
  8
0
  6
Continuous
 62
     7
 48
50.0
370
    25
100
AcDbLine
 10
19443.8268063052
 20
13029.4054333454
 30
0.0
 11
19442.46686673
 21
13030.0393287425
 31
0.0
  0
ARC
  5
249
330
1F
100
AcDbEntity
  8
0
  6
Continuous
 62
     7
 48
2500.0
370
    25
100
AcDbCircle
 10
19440.6545124349
 20
13030.8845759018
 30
0.0
 40
3.500000000031243
100
AcDbArc
 50
335.000000001
 51
65.0000000003
  0
ARC
  5
24A
330
1F
100
AcDbEntity
  8
0
  6
Continuous
 62
     7
 48
2500.0
370
    25
100
AcDbCircle
 10
19440.6545124349
 20
13030.8845759018
 30
0.0
 40
2.000000000029825
100
AcDbArc
 50
335.0000000005
 51
65.0000000004
  0
LINE
  5
24B
330
1F
100
AcDbEntity
  8
0
  6
Continuous
 62
     7
 48
50.0
370
    25
100
AcDbLine
 10
19361.5342495425
 20
12962.9579369312
 30
0.0
 11
19360.9010097964
 21
12961.5984741931
 31
0.0
  0
LINE
  5
24C
330
1F
100
AcDbEntity
  8
0
  6
Continuous
 62
     7
 48
50.0
370
    25
100
AcDbLine
 10
19399.871957062
 20
12943.4258524662
 30
0.0
 11
19400.5061504824
 21
12944.7853152042
 31
0.0
  0
LINE
  5
24D
330
1F
100
AcDbEntity
  8
0
  6
Continuous
 62
     7
 48
50.0
370
    25
100
AcDbLine
 10
19399.871957062
 20
12943.4258524662
 30
0.0
 11
19360.9010097964
 21
12961.5984741931
 31
0.0
  0
LINE
  5
24E
330
1F
100
AcDbEntity
  8
0
  6
Continuous
 62
     7
 48
50.0
370
    25
100
AcDbLine
 10
19400.5061504824
 20
12944.7853152042
 30
0.0
 11
19361.5342495425
 21
12962.9579369312
 31
0.0
  0
LINE
  5
24F
330
1F
100
AcDbEntity
  8
0
  6
Continuous
 62
     7
 48
50.0
370
    25
100
AcDbLine
 10
19403.1640408023
 20
12945.7526985889
 30
0.0
 11
19404.5230267031
 21
12945.1188031917
 31
0.0
  0
ARC
  5
250
330
1F
100
AcDbEntity
  8
0
  6
Continuous
 62
     7
 48
2500.0
370
    25
100
AcDbCircle
 10
19401.351014093
 20
12946.5979517075
 30
0.0
 40
3.499999999989798
100
AcDbArc
 50
245.0000000001
 51
335.0000000006
  0
ARC
  5
251
330
1F
100
AcDbEntity
  8
0
  6
Continuous
 62
     7
 48
2500.0
370
    25
100
AcDbCircle
 10
19401.351014093
 20
12946.5979517075
 30
0.0
 40
2.000000000009607
100
AcDbArc
 50
245.000000001
 51
335.0000000006
  0
ARC
  5
252
330
1F
100
AcDbEntity
  8
0
  6
Continuous
 62
     7
 48
2500.0
370
    25
100
AcDbCircle
 10
19362.3797792504
 20
12964.7705369623
 30
0.0
 40
3.500000000001227
100
AcDbArc
 50
154.9999999997
 51
245.0000000001
  0
LINE
  5
253
330
1F
100
AcDbEntity
  8
0
  6
Continuous
 62
     7
 48
50.0
370
    25
100
AcDbLine
 10
19359.2072842105
 20
12966.2497226482
 30
0.0
 11
19360.5672237856
 21
12965.6157676464
 31
0.0
  0
ARC
  5
254
330
1F
100
AcDbEntity
  8
0
  6
Continuous
 62
     7
 48
2500.0
370
    25
100
AcDbCircle
 10
19362.3797792504
 20
12964.7705369623
 30
0.0
 40
1.9999999999762
100
AcDbArc
 50
154.9999999996
 51
245.0000000005
  0
LINE
  5
255
330
1F
100
AcDbEntity
  8
0
  6
Continuous
 62
     7
 48
50.0
370
    25
100
AcDbLine
 10
19360.5672237856
 20
12965.6157676464
 30
0.0
 11
19367.5404903872
 21
12980.5698577648
 31
0.0
  0
LINE
  5
256
330
1F
100
AcDbEntity
  8
0
  6
Continuous
 62
     7
 48
50.0
370
    25
100
AcDbLine
 10
19359.2072842105
 20
12966.2497226482
 30
0.0
 11
19366.180550812
 21
12981.203753162
 31
0.0
  0
LINE
  5
257
330
1F
100
AcDbEntity
  8
0
  6
Continuous
 62
     7
 48
50.0
370
    25
100
AcDbLine
 10
19367.5404903872
 20
12980.5698577648
 30
0.0
 11
19366.180550812
 21
12981.203753162
 31
0.0
  0
LINE
  5
258
330
1F
100
AcDbEntity
  8
0
  6
Continuous
 62
     7
 48
50.0
370
    25
100
AcDbLine
 10
19443.8268063052
 20
13029.4054333454
 30
0.0
 11
19404.5230267031
 21
12945.1188031917
 31
0.0
  0
LINE
  5
259
330
1F
100
AcDbEntity
  8
0
  6
Continuous
 62
     7
 48
50.0
370
    25
100
AcDbLine
 10
19442.46686673
 20
13030.0393287425
 30
0.0
 11
19403.1640408023
 21
12945.7526985889
 31
0.0
  0
ARC
  5
25A
330
1F
100
AcDbEntity
  8
0
  6
Continuous
 62
     7
 48
2500.0
370
    25
100
AcDbCircle
 10
19401.6832775923
 20
13049.0571611567
 30
0.0
 40
3.500000000018805
100
AcDbArc
 50
64.9999999999
 51
154.9999999998
  0
ARC
  5
25B
330
1F
100
AcDbEntity
  8
0
  6
Continuous
 62
     7
 48
2500.0
370
    25
100
AcDbCircle
 10
19401.6832775923
 20
13049.0571611567
 30
0.0
 40
2.00000000002751
100
AcDbArc
 50
64.9999999997
 51
154.9999999991
  0
LINE
  5
25C
330
1F
100
AcDbEntity
  8
0
  6
Continuous
 62
     7
 48
50.0
370
    25
100
AcDbLine
 10
18158.0535290225
 20
13610.7657138591
 30
0.0
 11
18165.0258419497
 21
13625.7198039775
 31
0.0
  0
LINE
  5
25D
330
1F
100
AcDbEntity
  8
0
  6
Continuous
 62
     7
 48
50.0
370
    25
100
AcDbLine
 10
18166.3857815249
 20
13625.0858489757
 30
0.0
 11
18165.0258419497
 21
13625.7198039775
 31
0.0
  0
LINE
  5
25E
330
1F
100
AcDbEntity
  8
0
  6
Continuous
 62
     7
 48
50.0
370
    25
100
AcDbLine
 10
18159.4125149233
 20
13610.1317588573
 30
0.0
 11
18166.3857815249
 21
13625.0858489757
 31
0.0
  0
LINE
  5
25F
330
1F
100
AcDbEntity
  8
0
  6
Continuous
 62
     7
 48
50.0
370
    25
100
AcDbLine
 10
18158.0535290225
 20
13610.7657138591
 30
0.0
 11
18159.4125149233
 21
13610.1317588573
 31
0.0
  0
LINE
  5
260
330
1F
100
AcDbEntity
  8
0
  6
Continuous
 62
     7
 48
50.0
370
    25
100
AcDbLine
 10
18208.0146191104
 20
13607.8806106334
 30
0.0
 11
18208.6488125308
 21
13609.2400733715
 31
0.0
  0
LINE
  5
261
330
1F
100
AcDbEntity
  8
0
  6
Continuous
 62
     7
 48
50.0
370
    25
100
AcDbLine
 10
18169.6778652651
 20
13627.4126950984
 30
0.0
 11
18169.0436718447
 21
13626.0532323604
 31
0.0
  0
LINE
  5
262
330
1F
100
AcDbEntity
  8
0
  6
Continuous
 62
     7
 48
50.0
370
    25
100
AcDbLine
 10
18169.6778652651
 20
13627.4126950984
 30
0.0
 11
18208.6488125308
 21
13609.2400733715
 31
0.0
  0
LINE
  5
263
330
1F
100
AcDbEntity
  8
0
  6
Continuous
 62
     7
 48
50.0
370
    25
100
AcDbLine
 10
18169.0436718447
 20
13626.0532323604
 30
0.0
 11
18208.0146191104
 21
13607.8806106334
 31
0.0
  0
LINE
  5
264
330
1F
100
AcDbEntity
  8
0
  6
Continuous
 62
     7
 48
50.0
370
    25
100
AcDbLine
 10
18210.3415844424
 20
13604.5888845211
 30
0.0
 11
18208.9825985415
 21
13605.2228395229
 31
0.0
  0
ARC
  5
265
330
1F
100
AcDbEntity
  8
0
  6
Continuous
 62
     7
 48
2500.0
370
    25
100
AcDbCircle
 10
18207.169614278
 20
13606.0680301309
 30
0.0
 40
3.500000000031243
100
AcDbArc
 50
335.000000001
 51
65.0000000003
  0
ARC
  5
266
330
1F
100
AcDbEntity
  8
0
  6
Continuous
 62
     7
 48
2500.0
370
    25
100
AcDbCircle
 10
18207.169614278
 20
13606.0680301309
 30
0.0
 40
2.000000000029825
100
AcDbArc
 50
335.0000000004
 51
65.0000000004
  0
LINE
  5
267
330
1F
100
AcDbEntity
  8
0
  6
Continuous
 62
     7
 48
50.0
370
    25
100
AcDbLine
 10
18128.049981354
 20
13538.1413881069
 30
0.0
 11
18127.4157879336
 21
13536.7819253688
 31
0.0
  0
LINE
  5
268
330
1F
100
AcDbEntity
  8
0
  6
Continuous
 62
     7
 48
50.0
370
    25
100
AcDbLine
 10
18166.3867351992
 20
13518.6093036418
 30
0.0
 11
18167.0209286196
 21
13519.9687663799
 31
0.0
  0
LINE
  5
269
330
1F
100
AcDbEntity
  8
0
  6
Continuous
 62
     7
 48
50.0
370
    25
100
AcDbLine
 10
18166.3867351992
 20
13518.6093036418
 30
0.0
 11
18127.4157879336
 21
13536.7819253688
 31
0.0
  0
LINE
  5
26A
330
1F
100
AcDbEntity
  8
0
  6
Continuous
 62
     7
 48
50.0
370
    25
100
AcDbLine
 10
18167.0209286196
 20
13519.9687663799
 30
0.0
 11
18128.049981354
 21
13538.1413881069
 31
0.0
  0
LINE
  5
26B
330
1F
100
AcDbEntity
  8
0
  6
Continuous
 62
     7
 48
50.0
370
    25
100
AcDbLine
 10
18169.6788189395
 20
13520.9361497646
 30
0.0
 11
18171.0378048403
 21
13520.3021947628
 31
0.0
  0
ARC
  5
26C
330
1F
100
AcDbEntity
  8
0
  6
Continuous
 62
     7
 48
2500.0
370
    25
100
AcDbCircle
 10
18167.8661159362
 20
13521.7814059366
 30
0.0
 40
3.499999999989687
100
AcDbArc
 50
245.0
 51
335.0000000005
  0
ARC
  5
26D
330
1F
100
AcDbEntity
  8
0
  6
Continuous
 62
     7
 48
2500.0
370
    25
100
AcDbCircle
 10
18167.8661159362
 20
13521.7814059366
 30
0.0
 40
2.000000000002244
100
AcDbArc
 50
245.0000000008
 51
335.0000000005
  0
ARC
  5
26E
330
1F
100
AcDbEntity
  8
0
  6
Continuous
 62
     7
 48
2500.0
370
    25
100
AcDbCircle
 10
18128.8948810936
 20
13539.9539911914
 30
0.0
 40
3.500000000001116
100
AcDbArc
 50
154.9999999997
 51
245.0
  0
LINE
  5
26F
330
1F
100
AcDbEntity
  8
0
  6
Continuous
 62
     7
 48
50.0
370
    25
100
AcDbLine
 10
18125.723016022
 20
13541.4331142192
 30
0.0
 11
18127.0820019229
 21
13540.7992784267
 31
0.0
  0
ARC
  5
270
330
1F
100
AcDbEntity
  8
0
  6
Continuous
 62
     7
 48
2500.0
370
    25
100
AcDbCircle
 10
18128.8948810936
 20
13539.9539911914
 30
0.0
 40
1.999999999983554
100
AcDbArc
 50
154.9999999997
 51
245.0000000004
  0
LINE
  5
271
330
1F
100
AcDbEntity
  8
0
  6
Continuous
 62
     7
 48
50.0
370
    25
100
AcDbLine
 10
18127.0820019229
 20
13540.7992784267
 30
0.0
 11
18134.0552685244
 21
13555.7532493358
 31
0.0
  0
LINE
  5
272
330
1F
100
AcDbEntity
  8
0
  6
Continuous
 62
     7
 48
50.0
370
    25
100
AcDbLine
 10
18125.723016022
 20
13541.4331142192
 30
0.0
 11
18132.6962826235
 21
13556.3872043376
 31
0.0
  0
LINE
  5
273
330
1F
100
AcDbEntity
  8
0
  6
Continuous
 62
     7
 48
50.0
370
    25
100
AcDbLine
 10
18134.0552685244
 20
13555.7532493358
 30
0.0
 11
18132.6962826235
 21
13556.3872043376
 31
0.0
  0
LINE
  5
274
330
1F
100
AcDbEntity
  8
0
  6
Continuous
 62
     7
 48
50.0
370
    25
100
AcDbLine
 10
18210.3415844424
 20
13604.5888845211
 30
0.0
 11
18171.0378048403
 21
13520.3021947628
 31
0.0
  0
LINE
  5
275
330
1F
100
AcDbEntity
  8
0
  6
Continuous
 62
     7
 48
50.0
370
    25
100
AcDbLine
 10
18208.9825985415
 20
13605.2228395229
 30
0.0
 11
18169.6788189395
 21
13520.9361497646
 31
0.0
  0
ARC
  5
276
330
1F
100
AcDbEntity
  8
0
  6
Continuous
 62
     7
 48
2500.0
370
    25
100
AcDbCircle
 10
18168.1983794355
 20
13624.2406153858
 30
0.0
 40
2.000000000025861
100
AcDbArc
 50
64.9999999997
 51
154.9999999992
  0
ARC
  5
277
330
1F
100
AcDbEntity
  8
0
  6
Continuous
 62
     7
 48
2500.0
370
    25
100
AcDbCircle
 10
18168.1983794355
 20
13624.2406153858
 30
0.0
 40
3.500000000017268
100
AcDbArc
 50
65.0
 51
154.9999999998
  0
LINE
  5
278
330
1F
100
AcDbEntity
  8
0
  6
Continuous
 62
     7
 48
50.0
370
    25
100
AcDbLine
 10
16237.5871059878
 20
14506.2939111476
 30
0.0
 11
16238.9460918887
 21
14505.6599561458
 31
0.0
  0
LINE
  5
279
330
1F
100
AcDbEntity
  8
0
  6
Continuous
 62
     7
 48
50.0
370
    25
100
AcDbLine
 10
16237.5871059878
 20
14506.2939111476
 30
0.0
 11
16244.5603725894
 21
14521.2477628475
 31
0.0
  0
LINE
  5
27A
330
1F
100
AcDbEntity
  8
0
  6
Continuous
 62
     7
 48
50.0
370
    25
100
AcDbLine
 10
16245.9193584902
 20
14520.6140462642
 30
0.0
 11
16244.5603725894
 21
14521.2477628475
 31
0.0
  0
LINE
  5
27B
330
1F
100
AcDbEntity
  8
0
  6
Continuous
 62
     7
 48
50.0
370
    25
100
AcDbLine
 10
16238.9460918887
 20
14505.6599561458
 30
0.0
 11
16245.9193584902
 21
14520.6140462642
 31
0.0
  0
LINE
  5
27C
330
1F
100
AcDbEntity
  8
0
  6
Continuous
 62
     7
 48
50.0
370
    25
100
AcDbLine
 10
16287.5481960757
 20
14503.4088079219
 30
0.0
 11
16288.1823894961
 21
14504.76827066
 31
0.0
  0
LINE
  5
27D
330
1F
100
AcDbEntity
  8
0
  6
Continuous
 62
     7
 48
50.0
370
    25
100
AcDbLine
 10
16249.2114422305
 20
14522.9407731777
 30
0.0
 11
16248.5772488101
 21
14521.5813104396
 31
0.0
  0
LINE
  5
27E
330
1F
100
AcDbEntity
  8
0
  6
Continuous
 62
     7
 48
50.0
370
    25
100
AcDbLine
 10
16249.2114422305
 20
14522.9407731777
 30
0.0
 11
16288.1823894961
 21
14504.76827066
 31
0.0
  0
LINE
  5
27F
330
1F
100
AcDbEntity
  8
0
  6
Continuous
 62
     7
 48
50.0
370
    25
100
AcDbLine
 10
16248.5772488101
 20
14521.5813104396
 30
0.0
 11
16287.5481960757
 21
14503.4088079219
 31
0.0
  0
LINE
  5
280
330
1F
100
AcDbEntity
  8
0
  6
Continuous
 62
     7
 48
50.0
370
    25
100
AcDbLine
 10
16289.8751614077
 20
14500.1169626003
 30
0.0
 11
16288.5161755068
 21
14500.7509176021
 31
0.0
  0
ARC
  5
281
330
1F
100
AcDbEntity
  8
0
  6
Continuous
 62
     7
 48
2500.0
370
    25
100
AcDbCircle
 10
16286.7034135472
 20
14501.5961267595
 30
0.0
 40
3.500000000031243
100
AcDbArc
 50
335.000000001
 51
65.0000000004
  0
ARC
  5
282
330
1F
100
AcDbEntity
  8
0
  6
Continuous
 62
     7
 48
2500.0
370
    25
100
AcDbCircle
 10
16286.7034135472
 20
14501.5961267595
 30
0.0
 40
2.000000000029825
100
AcDbArc
 50
335.0000000005
 51
65.0000000004
  0
LINE
  5
283
330
1F
100
AcDbEntity
  8
0
  6
Continuous
 62
     7
 48
50.0
370
    25
100
AcDbLine
 10
16249.2123959048
 20
14416.4642278438
 30
0.0
 11
16250.57233548
 21
14415.830272842
 31
0.0
  0
LINE
  5
284
330
1F
100
AcDbEntity
  8
0
  6
Continuous
 62
     7
 48
50.0
370
    25
100
AcDbLine
 10
16245.9203121646
 20
14414.1375009304
 30
0.0
 11
16246.554505585
 21
14415.4969636684
 31
0.0
  0
ARC
  5
285
330
1F
100
AcDbEntity
  8
0
  6
Continuous
 62
     7
 48
2500.0
370
    25
100
AcDbCircle
 10
16247.3999152054
 20
14417.3095025652
 30
0.0
 40
3.499999999993753
100
AcDbArc
 50
245.0
 51
335.0000000005
  0
ARC
  5
286
330
1F
100
AcDbEntity
  8
0
  6
Continuous
 62
     7
 48
2500.0
370
    25
100
AcDbCircle
 10
16247.3999152054
 20
14417.3095025652
 30
0.0
 40
2.000000000005429
100
AcDbArc
 50
245.0000000009
 51
335.0000000004
  0
LINE
  5
287
330
1F
100
AcDbEntity
  8
0
  6
Continuous
 62
     7
 48
50.0
370
    25
100
AcDbLine
 10
16207.5835583193
 20
14433.6694661861
 30
0.0
 11
16206.9493648989
 21
14432.3100034481
 31
0.0
  0
LINE
  5
288
330
1F
100
AcDbEntity
  8
0
  6
Continuous
 62
     7
 48
50.0
370
    25
100
AcDbLine
 10
16245.9203121646
 20
14414.1375009304
 30
0.0
 11
16206.9493648989
 21
14432.3100034481
 31
0.0
  0
LINE
  5
289
330
1F
100
AcDbEntity
  8
0
  6
Continuous
 62
     7
 48
50.0
370
    25
100
AcDbLine
 10
16246.554505585
 20
14415.4969636684
 30
0.0
 11
16207.5835583193
 21
14433.6694661861
 31
0.0
  0
ARC
  5
28A
330
1F
100
AcDbEntity
  8
0
  6
Continuous
 62
     7
 48
2500.0
370
    25
100
AcDbCircle
 10
16208.4286803628
 20
14435.48208782
 30
0.0
 40
1.999999999980368
100
AcDbArc
 50
154.9999999998
 51
245.0000000004
  0
ARC
  5
28B
330
1F
100
AcDbEntity
  8
0
  6
Continuous
 62
     7
 48
2500.0
370
    25
100
AcDbCircle
 10
16208.4286803628
 20
14435.48208782
 30
0.0
 40
3.500000000003644
100
AcDbArc
 50
154.9999999998
 51
245.0000000001
  0
LINE
  5
28C
330
1F
100
AcDbEntity
  8
0
  6
Continuous
 62
     7
 48
50.0
370
    25
100
AcDbLine
 10
16205.2565929873
 20
14436.9613115077
 30
0.0
 11
16206.6165325625
 21
14436.3273565059
 31
0.0
  0
LINE
  5
28D
330
1F
100
AcDbEntity
  8
0
  6
Continuous
 62
     7
 48
50.0
370
    25
100
AcDbLine
 10
16213.5888454897
 20
14451.2814466243
 30
0.0
 11
16212.2298595889
 21
14451.9154016262
 31
0.0
  0
LINE
  5
28E
330
1F
100
AcDbEntity
  8
0
  6
Continuous
 62
     7
 48
50.0
370
    25
100
AcDbLine
 10
16206.6165325625
 20
14436.3273565059
 30
0.0
 11
16213.5888454897
 21
14451.2814466243
 31
0.0
  0
LINE
  5
28F
330
1F
100
AcDbEntity
  8
0
  6
Continuous
 62
     7
 48
50.0
370
    25
100
AcDbLine
 10
16205.2565929873
 20
14436.9613115077
 30
0.0
 11
16212.2298595889
 21
14451.9154016262
 31
0.0
  0
LINE
  5
290
330
1F
100
AcDbEntity
  8
0
  6
Continuous
 62
     7
 48
50.0
370
    25
100
AcDbLine
 10
16289.8751614077
 20
14500.1169626003
 30
0.0
 11
16250.57233548
 21
14415.830272842
 31
0.0
  0
LINE
  5
291
330
1F
100
AcDbEntity
  8
0
  6
Continuous
 62
     7
 48
50.0
370
    25
100
AcDbLine
 10
16288.5161755068
 20
14500.7509176021
 30
0.0
 11
16249.2123959048
 21
14416.4642278438
 31
0.0
  0
ARC
  5
292
330
1F
100
AcDbEntity
  8
0
  6
Continuous
 62
     7
 48
2500.0
370
    25
100
AcDbCircle
 10
16247.7321787046
 20
14519.7687120144
 30
0.0
 40
2.00000000002575
100
AcDbArc
 50
64.9999999996
 51
154.9999999992
  0
ARC
  5
293
330
1F
100
AcDbEntity
  8
0
  6
Continuous
 62
     7
 48
2500.0
370
    25
100
AcDbCircle
 10
16247.7321787046
 20
14519.7687120144
 30
0.0
 40
3.500000000015508
100
AcDbArc
 50
64.9999999999
 51
154.9999999998
  0
LINE
  5
294
330
1F
100
AcDbEntity
  8
0
  6
Continuous
 62
     7
 48
50.0
370
    25
100
AcDbLine
 10
16188.2811901553
 20
14436.0500756984
 30
0.0
 11
17801.5090343936
 21
13683.7895099407
 31
0.0
  0
LWPOLYLINE
  5
295
330
1F
100
AcDbEntity
  8
0
  6
Continuous
 62
     7
 48
50.0
370
    25
100
AcDbPolyline
 90
        9
 70
   128
 43
0.0
 10
16190.1828167422
 20
14440.1284639125
 10
16190.1465771182
 20
14440.0500242
 10
16190.0378582461
 20
14439.8180429225
 10
16189.8623821719
 20
14439.441103149
 10
16189.6258709414
 20
14438.9339868312
 10
16189.3378612979
 20
14438.3160058742
 10
16189.0088436587
 20
14437.6107637172
 10
16188.6521694644
 20
14436.8456784969
 10
16188.2811901553
 20
14436.0500756984
  0
LINE
  5
296
330
1F
100
AcDbEntity
  8
0
  6
Continuous
 62
     7
 48
50.0
370
    25
100
AcDbLine
 10
16190.1828167422
 20
14440.1284639125
 30
0.0
 11
16206.9493648989
 21
14432.3100034481
 31
0.0
  0
LINE
  5
297
330
1F
100
AcDbEntity
  8
0
  6
Continuous
 62
     7
 48
50.0
370
    25
100
AcDbLine
 10
16245.9203121646
 20
14414.1375009304
 30
0.0
 11
17440.4345867617
 21
13857.126611877
 31
0.0
  0
LWPOLYLINE
  5
298
330
1F
100
AcDbEntity
  8
0
  6
Continuous
 62
     7
 48
50.0
370
    25
100
AcDbPolyline
 90
        3
 70
   128
 43
0.0
 10
17479.4055340273
 20
13838.95399015
 10
17803.4106609805
 20
13687.8678981548
 10
18127.4157879336
 20
13536.7819253688
  0
LWPOLYLINE
  5
299
330
1F
100
AcDbEntity
  8
0
  6
Continuous
 62
     7
 48
50.0
370
    25
100
AcDbPolyline
 90
        9
 70
   128
 43
0.0
 10
17803.4106609805
 20
13687.8678981548
 10
17803.3744213564
 20
13687.7895776515
 10
17803.2657024844
 20
13687.5574771648
 10
17803.0902264102
 20
13687.1806566005
 10
17802.8537151797
 20
13686.6734210735
 10
17802.5657055361
 20
13686.0554401164
 10
17802.236687897
 20
13685.3503171688
 10
17801.8800137026
 20
13684.5852319484
 10
17801.5090343936
 20
13683.7895099407
  0
LINE
  5
29A
330
1F
100
AcDbEntity
  8
0
  6
Continuous
 62
     7
 48
50.0
370
    25
100
AcDbLine
 10
16141.5816662295
 20
14335.9030668025
 30
0.0
 11
17754.8095104678
 21
13583.6425010448
 31
0.0
  0
LWPOLYLINE
  5
29B
330
1F
100
AcDbEntity
  8
0
  6
Continuous
 62
     7
 48
50.0
370
    25
100
AcDbPolyline
 90
        9
 70
   128
 43
0.0
 10
16143.4832928164
 20
14339.9814550167
 10
16143.1123135073
 20
14339.1858522182
 10
16142.755639313
 20
14338.4207669979
 10
16142.4266216738
 20
14337.7155248409
 10
16142.1386120303
 20
14337.0975438838
 10
16141.9021007998
 20
14336.5904275661
 10
16141.7266247256
 20
14336.2134877925
 10
16141.6179058535
 20
14335.9815065151
 10
16141.5816662295
 20
14335.9030668025
  0
LINE
  5
29C
330
1F
100
AcDbEntity
  8
0
  6
Continuous
 62
     7
 48
50.0
370
    25
100
AcDbLine
 10
16143.4832928164
 20
14339.9814550167
 30
0.0
 11
17756.7111370547
 21
13587.7208892589
 31
0.0
  0
LWPOLYLINE
  5
29D
330
1F
100
AcDbEntity
  8
0
  6
Continuous
 62
     7
 48
50.0
370
    25
100
AcDbPolyline
 90
        9
 70
   128
 43
0.0
 10
17756.7111370547
 20
13587.7208892589
 10
17756.3401577456
 20
13586.9252864604
 10
17755.9834835513
 20
13586.1602012401
 10
17755.6544659121
 20
13585.4550782924
 10
17755.3664562686
 20
13584.8370973354
 10
17755.1299450381
 20
13584.3298618083
 10
17754.9544689639
 20
13583.9530412441
 10
17754.8457500918
 20
13583.7209407573
 10
17754.8095104678
 20
13583.6425010448
  0
LINE
  5
29E
330
1F
100
AcDbEntity
  8
0
  6
Continuous
 62
     7
 48
50.0
370
    25
100
AcDbLine
 10
16150.0340816958
 20
14354.0293161159
 30
0.0
 11
16143.4832928164
 21
14339.9814550167
 31
0.0
  0
LINE
  5
29F
330
1F
100
AcDbEntity
  8
0
  6
Continuous
 62
     7
 48
50.0
370
    25
100
AcDbLine
 10
16150.0340816958
 20
14354.0293161159
 30
0.0
 11
17763.2619259341
 21
13601.7687503581
 31
0.0
  0
LINE
  5
2A0
330
1F
100
AcDbEntity
  8
0
  6
Continuous
 62
     7
 48
50.0
370
    25
100
AcDbLine
 10
17763.2619259341
 20
13601.7687503581
 30
0.0
 11
17756.7111370547
 21
13587.7208892589
 31
0.0
  0
LINE
  5
2A1
330
1F
100
AcDbEntity
  8
0
  6
Continuous
 62
     7
 48
50.0
370
    25
100
AcDbLine
 10
16188.2811901553
 20
14436.0500756984
 30
0.0
 11
16181.7304012759
 21
14422.0022145992
 31
0.0
  0
LINE
  5
2A2
330
1F
100
AcDbEntity
  8
0
  6
Continuous
 62
     7
 48
50.0
370
    25
100
AcDbLine
 10
17801.5090343936
 20
13683.7895099407
 30
0.0
 11
17794.9582455142
 21
13669.7417680507
 31
0.0
  0
LINE
  5
2A3
330
1F
100
AcDbEntity
  8
0
  6
Continuous
 62
     7
 48
50.0
370
    25
100
AcDbLine
 10
16181.7304012759
 20
14422.0022145992
 30
0.0
 11
17794.9582455142
 21
13669.7417680507
 31
0.0
  0
LINE
  5
2A4
330
1F
100
AcDbEntity
  8
0
  6
Continuous
 62
     7
 48
50.0
370
    25
100
AcDbLine
 10
16150.0340816958
 20
14354.0293161159
 30
0.0
 11
16181.7304012759
 21
14422.0022145992
 31
0.0
  0
LINE
  5
2A5
330
1F
100
AcDbEntity
  8
0
  6
Continuous
 62
     7
 48
50.0
370
    25
100
AcDbLine
 10
17763.2619259341
 20
13601.7687503581
 30
0.0
 11
17794.9582455142
 21
13669.7417680507
 31
0.0
  0
ARC
  5
2A6
330
1F
100
AcDbEntity
  8
0
  6
Continuous
 62
     7
 48
2500.0
370
    25
100
AcDbCircle
 10
16613.145165239
 20
14179.453638484
 30
0.0
 40
6.500000000013586
100
AcDbArc
 50
244.9999999998
 51
65.0000000002
  0
LINE
  5
2A7
330
1F
100
AcDbEntity
  8
0
  6
Continuous
 62
     7
 48
50.0
370
    25
100
AcDbLine
 10
16537.0437023623
 20
14222.112316299
 30
0.0
 11
16615.8925411685
 21
14185.3445951229
 31
0.0
  0
ARC
  5
2A8
330
1F
100
AcDbEntity
  8
0
  6
Continuous
 62
     7
 48
2500.0
370
    25
100
AcDbCircle
 10
16534.2963877668
 20
14216.2214272554
 30
0.0
 40
6.500000000001731
100
AcDbArc
 50
65.0000000002
 51
245.0000000001
  0
LINE
  5
2A9
330
1F
100
AcDbEntity
  8
0
  6
Continuous
 62
     7
 48
50.0
370
    25
100
AcDbLine
 10
16610.3984234316
 20
14173.5626641994
 30
0.0
 11
16531.5495846255
 21
14210.3303853755
 31
0.0
  0
CIRCLE
  5
2AA
330
1F
100
AcDbEntity
  8
0
  6
Continuous
 62
     7
 48
2500.0
370
    25
100
AcDbCircle
 10
17767.0178951293
 20
13668.978395974
 30
0.0
 40
6.500000000002935
  0
CIRCLE
  5
2AB
330
1F
100
AcDbEntity
  8
0
  6
Continuous
 62
     7
 48
2500.0
370
    25
100
AcDbCircle
 10
17745.8869820422
 20
13623.6630066222
 30
0.0
 40
6.499999999997109
  0
CIRCLE
  5
2AC
330
1F
100
AcDbEntity
  8
0
  6
Continuous
 62
     7
 48
2500.0
370
    25
100
AcDbCircle
 10
17631.0717270738
 20
13732.3711352351
 30
0.0
 40
6.500000000001175
  0
CIRCLE
  5
2AD
330
1F
100
AcDbEntity
  8
0
  6
Continuous
 62
     7
 48
2500.0
370
    25
100
AcDbCircle
 10
17609.9408139867
 20
13687.0557458833
 30
0.0
 40
6.500000000000407
  0
ARC
  5
2AE
330
1F
100
AcDbEntity
  8
0
  6
Continuous
 62
     7
 48
2500.0
370
    25
100
AcDbCircle
 10
17011.9205915351
 20
13993.5016033181
 30
0.0
 40
6.500000000000416
100
AcDbArc
 50
245.0000000003
 51
64.9999999999
  0
LINE
  5
2AF
330
1F
100
AcDbEntity
  8
0
  6
Continuous
 62
     7
 48
50.0
370
    25
100
AcDbLine
 10
16935.8188030703
 20
14036.1603681331
 30
0.0
 11
17014.6676418765
 21
13999.392646957
 31
0.0
  0
ARC
  5
2B0
330
1F
100
AcDbEntity
  8
0
  6
Continuous
 62
     7
 48
2500.0
370
    25
100
AcDbCircle
 10
16933.0718140629
 20
14030.2693920895
 30
0.0
 40
6.499999999996008
100
AcDbArc
 50
64.9999999999
 51
244.9999999999
  0
LINE
  5
2B1
330
1F
100
AcDbEntity
  8
0
  6
Continuous
 62
     7
 48
50.0
370
    25
100
AcDbLine
 10
17009.1735241396
 20
13987.6105968242
 30
0.0
 11
16930.3246853335
 21
14024.3784372097
 31
0.0
  0
ARC
  5
2B2
330
1F
100
AcDbEntity
  8
0
  6
Continuous
 62
     7
 48
2500.0
370
    25
100
AcDbCircle
 10
16239.7463569799
 20
14353.5723623211
 30
0.0
 40
6.500000000016901
100
AcDbArc
 50
65.0000000003
 51
244.9999999999
  0
LINE
  5
2B3
330
1F
100
AcDbEntity
  8
0
  6
Continuous
 62
     7
 48
50.0
370
    25
100
AcDbLine
 10
16270.5327389224
 20
14332.0445005184
 30
0.0
 11
16236.9996426089
 21
14347.6814214473
 31
0.0
  0
ARC
  5
2B4
330
1F
100
AcDbEntity
  8
0
  6
Continuous
 62
     7
 48
2500.0
370
    25
100
AcDbCircle
 10
16273.2797451002
 20
14337.9354866367
 30
0.0
 40
6.500000000008539
100
AcDbArc
 50
245.0
 51
65.0
  0
LINE
  5
2B5
330
1F
100
AcDbEntity
  8
0
  6
Continuous
 62
     7
 48
50.0
370
    25
100
AcDbLine
 10
16242.4937603457
 20
14359.4633523708
 30
0.0
 11
16276.0268566592
 21
14343.8264314418
 31
0.0
  0
ARC
  5
2B6
330
1F
100
AcDbEntity
  8
0
  6
Continuous
 62
     7
 48
2500.0
370
    25
100
AcDbCircle
 10
17331.8472403591
 20
13844.3173569236
 30
0.0
 40
6.500000000024904
100
AcDbArc
 50
64.9999999998
 51
244.9999999999
  0
LINE
  5
2B7
330
1F
100
AcDbEntity
  8
0
  6
Continuous
 62
     7
 48
50.0
370
    25
100
AcDbLine
 10
17407.9486248477
 20
13801.658529449
 30
0.0
 11
17329.0997860415
 21
13838.4263698345
 31
0.0
  0
ARC
  5
2B8
330
1F
100
AcDbEntity
  8
0
  6
Continuous
 62
     7
 48
2500.0
370
    25
100
AcDbCircle
 10
17410.6960178312
 20
13807.5495681522
 30
0.0
 40
6.500000000007881
100
AcDbArc
 50
245.0000000001
 51
65.0
  0
LINE
  5
2B9
330
1F
100
AcDbEntity
  8
0
  6
Continuous
 62
     7
 48
50.0
370
    25
100
AcDbLine
 10
17334.5939037783
 20
13850.2083007579
 30
0.0
 11
17413.4427425845
 21
13813.4405795818
 31
0.0
  0
ARC
  5
2BA
330
1F
100
AcDbEntity
  8
0
  6
Continuous
 62
     7
 48
2500.0
370
    25
100
AcDbCircle
 10
17705.2460486182
 20
13670.1986330864
 30
0.0
 40
6.499999999998767
100
AcDbArc
 50
244.9999999997
 51
65.0000000003
  0
LINE
  5
2BB
330
1F
100
AcDbEntity
  8
0
  6
Continuous
 62
     7
 48
50.0
370
    25
100
AcDbLine
 10
17674.4595882876
 20
13691.726464439
 30
0.0
 11
17707.9926846011
 21
13676.0896627193
 31
0.0
  0
ARC
  5
2BC
330
1F
100
AcDbEntity
  8
0
  6
Continuous
 62
     7
 48
2500.0
370
    25
100
AcDbCircle
 10
17671.7126604978
 20
13685.8355087709
 30
0.0
 40
6.500000000019198
100
AcDbArc
 50
65.0000000001
 51
245.0
  0
LINE
  5
2BD
330
1F
100
AcDbEntity
  8
0
  6
Continuous
 62
     7
 48
50.0
370
    25
100
AcDbLine
 10
17702.4985668643
 20
13664.3076125865
 30
0.0
 11
17668.9654705508
 21
13679.9445335155
 31
0.0
  0
CIRCLE
  5
2BE
330
1F
100
AcDbEntity
  8
0
  6
Continuous
 62
     7
 48
2500.0
370
    25
100
AcDbCircle
 10
16177.9745104688
 20
14354.7925994336
 30
0.0
 40
6.499999999999527
  0
CIRCLE
  5
2BF
330
1F
100
AcDbEntity
  8
0
  6
Continuous
 62
     7
 48
2500.0
370
    25
100
AcDbCircle
 10
16199.1054235559
 20
14400.1079887854
 30
0.0
 40
6.500000000002824
  0
CIRCLE
  5
2C0
330
1F
100
AcDbEntity
  8
0
  6
Continuous
 62
     7
 48
2500.0
370
    25
100
AcDbCircle
 10
16335.0515916113
 20
14336.7152495243
 30
0.0
 40
6.49999999999799
  0
CIRCLE
  5
2C1
330
1F
100
AcDbEntity
  8
0
  6
Continuous
 62
     7
 48
2500.0
370
    25
100
AcDbCircle
 10
16313.9206785243
 20
14291.3998601725
 30
0.0
 40
6.499999999999639
  0
LINE
  5
2C2
330
1F
100
AcDbEntity
  8
0
  6
Continuous
 62
     7
 48
50.0
370
    25
100
AcDbLine
 10
17801.5090343936
 20
13683.7895099407
 30
0.0
 11
19414.7368786318
 21
12931.5290633922
 31
0.0
  0
LINE
  5
2C3
330
1F
100
AcDbEntity
  8
0
  6
Continuous
 62
     7
 48
50.0
370
    25
100
AcDbLine
 10
18166.3867351992
 20
13518.6093036418
 30
0.0
 11
19360.9010097964
 21
12961.5984741931
 31
0.0
  0
LINE
  5
2C4
330
1F
100
AcDbEntity
  8
0
  6
Continuous
 62
     7
 48
50.0
370
    25
100
AcDbLine
 10
19399.871957062
 20
12943.4258524662
 30
0.0
 11
19416.6385052188
 21
12935.6074516063
 31
0.0
  0
LWPOLYLINE
  5
2C5
330
1F
100
AcDbEntity
  8
0
  6
Continuous
 62
     7
 48
50.0
370
    25
100
AcDbPolyline
 90
        9
 70
   128
 43
0.0
 10
19416.6385052188
 20
12935.6074516063
 10
19416.6022655947
 20
12935.5290714984
 10
19416.4935467227
 20
12935.2969710117
 10
19416.3180706484
 20
12934.9200908428
 10
19416.081559418
 20
12934.4129149204
 10
19415.7935497744
 20
12933.7948743587
 10
19415.4645321353
 20
12933.0898110156
 10
19415.1078579409
 20
12932.3247257953
 10
19414.7368786318
 20
12931.5290633922
  0
LWPOLYLINE
  5
2C6
330
1F
100
AcDbEntity
  8
0
  6
Continuous
 62
     7
 48
50.0
370
    25
100
AcDbPolyline
 90
        9
 70
   128
 43
0.0
 10
17803.4106609805
 20
13687.8678981548
 10
17803.3744213564
 20
13687.7895776515
 10
17803.2657024844
 20
13687.5574771648
 10
17803.0902264102
 20
13687.1806566005
 10
17802.8537151797
 20
13686.6734210735
 10
17802.5657055361
 20
13686.0554401164
 10
17802.236687897
 20
13685.3503171688
 10
17801.8800137026
 20
13684.5852319484
 10
17801.5090343936
 20
13683.7895099407
  0
LINE
  5
2C7
330
1F
100
AcDbEntity
  8
0
  6
Continuous
 62
     7
 48
50.0
370
    25
100
AcDbLine
 10
17754.8095104678
 20
13583.6425010448
 30
0.0
 11
19368.0373547061
 21
12831.3820544963
 31
0.0
  0
LWPOLYLINE
  5
2C8
330
1F
100
AcDbEntity
  8
0
  6
Continuous
 62
     7
 48
50.0
370
    25
100
AcDbPolyline
 90
        9
 70
   128
 43
0.0
 10
17756.7111370547
 20
13587.7208892589
 10
17756.3401577456
 20
13586.9252864604
 10
17755.9834835513
 20
13586.1602012401
 10
17755.6544659121
 20
13585.4550782924
 10
17755.3664562686
 20
13584.8370973354
 10
17755.1299450381
 20
13584.3298618083
 10
17754.9544689639
 20
13583.9530412441
 10
17754.8457500918
 20
13583.7209407573
 10
17754.8095104678
 20
13583.6425010448
  0
LINE
  5
2C9
330
1F
100
AcDbEntity
  8
0
  6
Continuous
 62
     7
 48
50.0
370
    25
100
AcDbLine
 10
17756.7111370547
 20
13587.7208892589
 30
0.0
 11
19369.938981293
 21
12835.4604427104
 31
0.0
  0
LWPOLYLINE
  5
2CA
330
1F
100
AcDbEntity
  8
0
  6
Continuous
 62
     7
 48
50.0
370
    25
100
AcDbPolyline
 90
        9
 70
   128
 43
0.0
 10
19369.938981293
 20
12835.4604427104
 10
19369.5680019839
 20
12834.6647803073
 10
19369.2113277896
 20
12833.899695087
 10
19368.8823101504
 20
12833.1945721393
 10
19368.5943005068
 20
12832.5765911823
 10
19368.3577892764
 20
12832.0693556552
 10
19368.1823132021
 20
12831.6924754863
 10
19368.0735943301
 20
12831.4604346042
 10
19368.0373547061
 20
12831.3820544963
  0
LINE
  5
2CB
330
1F
100
AcDbEntity
  8
0
  6
Continuous
 62
     7
 48
50.0
370
    25
100
AcDbLine
 10
19376.4897701724
 20
12849.5081846004
 30
0.0
 11
19369.938981293
 21
12835.4604427104
 31
0.0
  0
LINE
  5
2CC
330
1F
100
AcDbEntity
  8
0
  6
Continuous
 62
     7
 48
50.0
370
    25
100
AcDbLine
 10
17763.2619259341
 20
13601.7687503581
 30
0.0
 11
19376.4897701724
 21
12849.5081846004
 31
0.0
  0
LINE
  5
2CD
330
1F
100
AcDbEntity
  8
0
  6
Continuous
 62
     7
 48
50.0
370
    25
100
AcDbLine
 10
17794.9582455142
 20
13669.7417680507
 30
0.0
 11
19408.1860897524
 21
12917.4812618976
 31
0.0
  0
LINE
  5
2CE
330
1F
100
AcDbEntity
  8
0
  6
Continuous
 62
     7
 48
50.0
370
    25
100
AcDbLine
 10
19414.7368786318
 20
12931.5290633922
 30
0.0
 11
19408.1860897524
 21
12917.4812618976
 31
0.0
  0
LINE
  5
2CF
330
1F
100
AcDbEntity
  8
0
  6
Continuous
 62
     7
 48
50.0
370
    25
100
AcDbLine
 10
19376.4897701724
 20
12849.5081846004
 30
0.0
 11
19408.1860897524
 21
12917.4812618976
 31
0.0
  0
ARC
  5
2D0
330
1F
100
AcDbEntity
  8
0
  6
Continuous
 62
     7
 48
2500.0
370
    25
100
AcDbCircle
 10
18226.3730261642
 20
13427.1931325855
 30
0.0
 40
6.500000000013586
100
AcDbArc
 50
244.9999999998
 51
65.0000000002
  0
LINE
  5
2D1
330
1F
100
AcDbEntity
  8
0
  6
Continuous
 62
     7
 48
50.0
370
    25
100
AcDbLine
 10
18150.2715466006
 20
13469.8518697505
 30
0.0
 11
18229.1203854067
 21
13433.0841485744
 31
0.0
  0
ARC
  5
2D2
330
1F
100
AcDbEntity
  8
0
  6
Continuous
 62
     7
 48
2500.0
370
    25
100
AcDbCircle
 10
18147.524248692
 20
13463.960921357
 30
0.0
 40
6.500000000003268
100
AcDbArc
 50
65.0000000001
 51
245.0000000001
  0
LINE
  5
2D3
330
1F
100
AcDbEntity
  8
0
  6
Continuous
 62
     7
 48
50.0
370
    25
100
AcDbLine
 10
18223.6262676699
 20
13421.3020984416
 30
0.0
 11
18144.7774288638
 21
13458.0699388271
 31
0.0
  0
CIRCLE
  5
2D4
330
1F
100
AcDbEntity
  8
0
  6
Continuous
 62
     7
 48
2500.0
370
    25
100
AcDbCircle
 10
19380.2457560545
 20
12916.7178900756
 30
0.0
 40
6.500000000003704
  0
CIRCLE
  5
2D5
330
1F
100
AcDbEntity
  8
0
  6
Continuous
 62
     7
 48
2500.0
370
    25
100
AcDbCircle
 10
19359.1148429675
 20
12871.4025007237
 30
0.0
 40
6.499999999997109
  0
CIRCLE
  5
2D6
330
1F
100
AcDbEntity
  8
0
  6
Continuous
 62
     7
 48
2500.0
370
    25
100
AcDbCircle
 10
19244.299587999
 20
12980.1106293367
 30
0.0
 40
6.500000000001175
  0
CIRCLE
  5
2D7
330
1F
100
AcDbEntity
  8
0
  6
Continuous
 62
     7
 48
2500.0
370
    25
100
AcDbCircle
 10
19223.168674912
 20
12934.7952399848
 30
0.0
 40
6.500000000000407
  0
ARC
  5
2D8
330
1F
100
AcDbEntity
  8
0
  6
Continuous
 62
     7
 48
2500.0
370
    25
100
AcDbCircle
 10
18625.1484524604
 20
13241.2410974197
 30
0.0
 40
6.500000000000416
100
AcDbArc
 50
245.0000000003
 51
64.9999999999
  0
LINE
  5
2D9
330
1F
100
AcDbEntity
  8
0
  6
Continuous
 62
     7
 48
50.0
370
    25
100
AcDbLine
 10
18549.0466473086
 20
13283.8999215846
 30
0.0
 11
18627.8954861147
 21
13247.1320811992
 31
0.0
  0
ARC
  5
2DA
330
1F
100
AcDbEntity
  8
0
  6
Continuous
 62
     7
 48
2500.0
370
    25
100
AcDbCircle
 10
18546.2996749882
 20
13278.0088861911
 30
0.0
 40
6.499999999996008
100
AcDbArc
 50
64.9999999998
 51
244.9999999999
  0
LINE
  5
2DB
330
1F
100
AcDbEntity
  8
0
  6
Continuous
 62
     7
 48
50.0
370
    25
100
AcDbLine
 10
18622.4013683779
 20
13235.3501502758
 30
0.0
 11
18543.5525295718
 21
13272.1178714519
 31
0.0
  0
ARC
  5
2DC
330
1F
100
AcDbEntity
  8
0
  6
Continuous
 62
     7
 48
2500.0
370
    25
100
AcDbCircle
 10
17852.9742179051
 20
13601.3118564227
 30
0.0
 40
6.500000000016901
100
AcDbArc
 50
65.0000000003
 51
244.9999999999
  0
LINE
  5
2DD
330
1F
100
AcDbEntity
  8
0
  6
Continuous
 62
     7
 48
50.0
370
    25
100
AcDbLine
 10
17883.7605831606
 20
13579.7839347606
 30
0.0
 11
17850.2274868472
 21
13595.4208556896
 31
0.0
  0
ARC
  5
2DE
330
1F
100
AcDbEntity
  8
0
  6
Continuous
 62
     7
 48
2500.0
370
    25
100
AcDbCircle
 10
17886.5076060255
 20
13585.6749807383
 30
0.0
 40
6.500000000004472
100
AcDbArc
 50
245.0
 51
65.0
  0
LINE
  5
2DF
330
1F
100
AcDbEntity
  8
0
  6
Continuous
 62
     7
 48
50.0
370
    25
100
AcDbLine
 10
17855.721604584
 20
13607.2029058223
 30
0.0
 11
17889.2547008975
 21
13591.5659848934
 31
0.0
  0
ARC
  5
2E0
330
1F
100
AcDbEntity
  8
0
  6
Continuous
 62
     7
 48
2500.0
370
    25
100
AcDbCircle
 10
18945.0751012843
 20
13092.0568510252
 30
0.0
 40
6.500000000023366
100
AcDbArc
 50
64.9999999998
 51
244.9999999999
  0
LINE
  5
2E1
330
1F
100
AcDbEntity
  8
0
  6
Continuous
 62
     7
 48
50.0
370
    25
100
AcDbLine
 10
19021.1764690859
 20
13049.3980829006
 30
0.0
 11
18942.3276302798
 21
13086.1658636814
 31
0.0
  0
ARC
  5
2E2
330
1F
100
AcDbEntity
  8
0
  6
Continuous
 62
     7
 48
2500.0
370
    25
100
AcDbCircle
 10
19023.9238787565
 20
13055.2890622537
 30
0.0
 40
6.500000000007881
100
AcDbArc
 50
245.0000000001
 51
65.0
  0
LINE
  5
2E3
330
1F
100
AcDbEntity
  8
0
  6
Continuous
 62
     7
 48
50.0
370
    25
100
AcDbLine
 10
18947.8217480166
 20
13097.9478542095
 30
0.0
 11
19026.6705868228
 21
13061.1800734287
 31
0.0
  0
ARC
  5
2E4
330
1F
100
AcDbEntity
  8
0
  6
Continuous
 62
     7
 48
2500.0
370
    25
100
AcDbCircle
 10
19318.4739095434
 20
12917.938127188
 30
0.0
 40
6.499999999998767
100
AcDbArc
 50
244.9999999997
 51
65.0000000003
  0
LINE
  5
2E5
330
1F
100
AcDbEntity
  8
0
  6
Continuous
 62
     7
 48
50.0
370
    25
100
AcDbLine
 10
19287.6874325259
 20
12939.4660178905
 30
0.0
 11
19321.2205288394
 21
12923.8291565662
 31
0.0
  0
ARC
  5
2E6
330
1F
100
AcDbEntity
  8
0
  6
Continuous
 62
     7
 48
2500.0
370
    25
100
AcDbCircle
 10
19284.940521423
 20
12933.5750028724
 30
0.0
 40
6.500000000017438
100
AcDbArc
 50
65.0000000001
 51
245.0
  0
LINE
  5
2E7
330
1F
100
AcDbEntity
  8
0
  6
Continuous
 62
     7
 48
50.0
370
    25
100
AcDbLine
 10
19315.7273647769
 20
12912.0471064334
 30
0.0
 11
19282.1933147891
 21
12927.6840273624
 31
0.0
  0
CIRCLE
  5
2E8
330
1F
100
AcDbEntity
  8
0
  6
Continuous
 62
     7
 48
2500.0
370
    25
100
AcDbCircle
 10
17791.2023713941
 20
13602.5320935351
 30
0.0
 40
6.500000000001175
  0
CIRCLE
  5
2E9
330
1F
100
AcDbEntity
  8
0
  6
Continuous
 62
     7
 48
2500.0
370
    25
100
AcDbCircle
 10
17812.3332844811
 20
13647.847482887
 30
0.0
 40
6.500000000004472
  0
CIRCLE
  5
2EA
330
1F
100
AcDbEntity
  8
0
  6
Continuous
 62
     7
 48
2500.0
370
    25
100
AcDbCircle
 10
17948.2794525366
 20
13584.4547436259
 30
0.0
 40
6.49999999999634
  0
CIRCLE
  5
2EB
330
1F
100
AcDbEntity
  8
0
  6
Continuous
 62
     7
 48
2500.0
370
    25
100
AcDbCircle
 10
17927.1485394496
 20
13539.139354274
 30
0.0
 40
6.499999999999639
  0
LINE
  5
2EC
330
1F
100
AcDbEntity
  8
0
  6
Continuous
 62
     7
 48
50.0
370
    25
100
AcDbLine
 10
16628.9998409731
 20
14248.6728612667
 30
0.0
 11
16624.499451874
 21
14248.6728612667
 31
0.0
  0
LINE
  5
2ED
330
1F
100
AcDbEntity
  8
0
  6
Continuous
 62
     7
 48
50.0
370
    25
100
AcDbLine
 10
16628.9998409731
 20
14248.6728612667
 30
0.0
 11
16628.9998409731
 21
14235.5047647243
 31
0.0
  0
LINE
  5
2EE
330
1F
100
AcDbEntity
  8
0
  6
Continuous
 62
     7
 48
50.0
370
    25
100
AcDbLine
 10
16628.9998409731
 20
14108.6163703685
 30
0.0
 11
16628.9998409731
 21
13118.6729852443
 31
0.0
  0
LINE
  5
2EF
330
1F
100
AcDbEntity
  8
0
  6
Continuous
 62
     7
 48
50.0
370
    25
100
AcDbLine
 10
16624.499451874
 20
14248.6728612667
 30
0.0
 11
16600.76059079
 21
14248.6728612667
 31
0.0
  0
LINE
  5
2F0
330
1F
100
AcDbEntity
  8
0
  6
Continuous
 62
     7
 48
50.0
370
    25
100
AcDbLine
 10
16580.9995052798
 20
14201.6154710536
 30
0.0
 11
16580.9995052798
 21
14187.2714940792
 31
0.0
  0
LINE
  5
2F1
330
1F
100
AcDbEntity
  8
0
  6
Continuous
 62
     7
 48
50.0
370
    25
100
AcDbLine
 10
16567.9990169985
 20
14207.6772634273
 30
0.0
 11
16567.9990169985
 21
14193.3335248714
 31
0.0
  0
ARC
  5
2F2
330
1F
100
AcDbEntity
  8
0
  6
Continuous
 62
     7
 48
2500.0
370
    25
100
AcDbCircle
 10
16574.499490021
 20
13166.1729566342
 30
0.0
 40
6.500000000025466
100
AcDbArc
 50
179.9999999994
 51
0.0000000002
  0
LINE
  5
2F3
330
1F
100
AcDbEntity
  8
0
  6
Continuous
 62
     7
 48
50.0
370
    25
100
AcDbLine
 10
16580.9995052798
 20
13171.1729947811
 30
0.0
 11
16580.9995052798
 21
13166.1729995494
 31
0.0
  0
ARC
  5
2F4
330
1F
100
AcDbEntity
  8
0
  6
Continuous
 62
     7
 48
2500.0
370
    25
100
AcDbCircle
 10
16574.499490021
 20
13171.1729566342
 30
0.0
 40
6.500000000047294
100
AcDbArc
 50
359.9999999917
 51
180.000000002
  0
LINE
  5
2F5
330
1F
100
AcDbEntity
  8
0
  6
Continuous
 62
     7
 48
50.0
370
    25
100
AcDbLine
 10
16567.9990169985
 20
13171.1729947811
 30
0.0
 11
16567.9990169985
 21
13166.1729995494
 31
0.0
  0
ARC
  5
2F6
330
1F
100
AcDbEntity
  8
0
  6
Continuous
 62
     7
 48
2500.0
370
    25
100
AcDbCircle
 10
16574.499490021
 20
13241.1729566342
 30
0.0
 40
6.499999999996362
100
AcDbArc
 50
0.0000000038
 51
180.0000000039
  0
LINE
  5
2F7
330
1F
100
AcDbEntity
  8
0
  6
Continuous
 62
     7
 48
50.0
370
    25
100
AcDbLine
 10
16567.9990169985
 20
13236.1729327922
 30
0.0
 11
16567.9990169985
 21
13241.1729280239
 31
0.0
  0
ARC
  5
2F8
330
1F
100
AcDbEntity
  8
0
  6
Continuous
 62
     7
 48
2500.0
370
    25
100
AcDbCircle
 10
16574.499490021
 20
13236.1729566342
 30
0.0
 40
6.500000000003638
100
AcDbArc
 50
180.0000000079
 51
0.0000000052
  0
LINE
  5
2F9
330
1F
100
AcDbEntity
  8
0
  6
Continuous
 62
     7
 48
50.0
370
    25
100
AcDbLine
 10
16580.9995052798
 20
13236.1729327922
 30
0.0
 11
16580.9995052798
 21
13241.1729280239
 31
0.0
  0
ARC
  5
2FA
330
1F
100
AcDbEntity
  8
0
  6
Continuous
 62
     7
 48
2500.0
370
    25
100
AcDbCircle
 10
16574.499490021
 20
13311.1729566342
 30
0.0
 40
6.499999999992724
100
AcDbArc
 50
359.9999999922
 51
179.9999999945
  0
LINE
  5
2FB
330
1F
100
AcDbEntity
  8
0
  6
Continuous
 62
     7
 48
50.0
370
    25
100
AcDbLine
 10
16567.9990169985
 20
13306.1729852443
 30
0.0
 11
16567.9990169985
 21
13311.1729804759
 31
0.0
  0
ARC
  5
2FC
330
1F
100
AcDbEntity
  8
0
  6
Continuous
 62
     7
 48
2500.0
370
    25
100
AcDbCircle
 10
16574.499490021
 20
13306.1729566342
 30
0.0
 40
6.500000000010914
100
AcDbArc
 50
180.0000000075
 51
0.0000000071
  0
LINE
  5
2FD
330
1F
100
AcDbEntity
  8
0
  6
Continuous
 62
     7
 48
50.0
370
    25
100
AcDbLine
 10
16580.9995052798
 20
13306.1729852443
 30
0.0
 11
16580.9995052798
 21
13311.1729804759
 31
0.0
  0
ARC
  5
2FE
330
1F
100
AcDbEntity
  8
0
  6
Continuous
 62
     7
 48
2500.0
370
    25
100
AcDbCircle
 10
16574.4994900209
 20
14076.1729566342
 30
0.0
 40
6.50000000001819
100
AcDbArc
 50
180.0000000009
 51
359.9999999981
  0
LINE
  5
2FF
330
1F
100
AcDbEntity
  8
0
  6
Continuous
 62
     7
 48
50.0
370
    25
100
AcDbLine
 10
16580.9995052798
 20
14081.1729614025
 30
0.0
 11
16580.9995052798
 21
14076.1729661708
 31
0.0
  0
ARC
  5
300
330
1F
100
AcDbEntity
  8
0
  6
Continuous
 62
     7
 48
2500.0
370
    25
100
AcDbCircle
 10
16574.499490021
 20
14081.1729566342
 30
0.0
 40
6.499999999996362
100
AcDbArc
 50
0.000000004
 51
179.9999999952
  0
LINE
  5
301
330
1F
100
AcDbEntity
  8
0
  6
Continuous
 62
     7
 48
50.0
370
    25
100
AcDbLine
 10
16567.9990169985
 20
14081.1729614025
 30
0.0
 11
16567.9990169985
 21
14076.1729661708
 31
0.0
  0
ARC
  5
302
330
1F
100
AcDbEntity
  8
0
  6
Continuous
 62
     7
 48
2500.0
370
    25
100
AcDbCircle
 10
16574.499490021
 20
14026.1729566342
 30
0.0
 40
6.500000000010914
100
AcDbArc
 50
179.9999999993
 51
359.9999999978
  0
LINE
  5
303
330
1F
100
AcDbEntity
  8
0
  6
Continuous
 62
     7
 48
50.0
370
    25
100
AcDbLine
 10
16580.9995052798
 20
14031.1730090862
 30
0.0
 11
16580.9995052798
 21
14026.1730138545
 31
0.0
  0
ARC
  5
304
330
1F
100
AcDbEntity
  8
0
  6
Continuous
 62
     7
 48
2500.0
370
    25
100
AcDbCircle
 10
16574.499490021
 20
14031.1729566342
 30
0.0
 40
6.499999999992724
100
AcDbArc
 50
0.0000000045
 51
179.9999999981
  0
LINE
  5
305
330
1F
100
AcDbEntity
  8
0
  6
Continuous
 62
     7
 48
50.0
370
    25
100
AcDbLine
 10
16567.9990169985
 20
14031.1730090862
 30
0.0
 11
16567.9990169985
 21
14026.1730138545
 31
0.0
  0
LINE
  5
306
330
1F
100
AcDbEntity
  8
0
  6
Continuous
 62
     7
 48
50.0
370
    25
100
AcDbLine
 10
16519.9996349795
 20
14159.4439927822
 30
0.0
 11
16519.9996349795
 21
13118.6729852443
 31
0.0
  0
LINE
  5
307
330
1F
100
AcDbEntity
  8
0
  6
Continuous
 62
     7
 48
50.0
370
    25
100
AcDbLine
 10
19037.4995586856
 20
13118.6729852443
 30
0.0
 11
19024.0537044985
 21
13118.6729852443
 31
0.0
  0
LINE
  5
308
330
1F
100
AcDbEntity
  8
0
  6
Continuous
 62
     7
 48
50.0
370
    25
100
AcDbLine
 10
19037.4995586856
 20
10748.6729804759
 30
0.0
 11
18931.4996120913
 21
10748.6729804759
 31
0.0
  0
LINE
  5
309
330
1F
100
AcDbEntity
  8
0
  6
Continuous
 62
     7
 48
50.0
370
    25
100
AcDbLine
 10
18981.999528168
 20
12982.1729842906
 30
0.0
 11
18986.9996426089
 21
12982.1729842906
 31
0.0
  0
ARC
  5
30A
330
1F
100
AcDbEntity
  8
0
  6
Continuous
 62
     7
 48
2500.0
370
    25
100
AcDbCircle
 10
18986.999490021
 20
12988.6729566342
 30
0.0
 40
6.5
100
AcDbArc
 50
270.0
 51
90.0000000001
  0
LINE
  5
30B
330
1F
100
AcDbEntity
  8
0
  6
Continuous
 62
     7
 48
50.0
370
    25
100
AcDbLine
 10
18986.9996426089
 20
12995.1729361301
 30
0.0
 11
18981.999528168
 21
12995.1729361301
 31
0.0
  0
ARC
  5
30C
330
1F
100
AcDbEntity
  8
0
  6
Continuous
 62
     7
 48
2500.0
370
    25
100
AcDbCircle
 10
18981.999490021
 20
12988.6729566342
 30
0.0
 40
6.500000000009095
100
AcDbArc
 50
89.9999999999
 51
270.0000000004
  0
LINE
  5
30D
330
1F
100
AcDbEntity
  8
0
  6
Continuous
 62
     7
 48
50.0
370
    25
100
AcDbLine
 10
18986.9996426089
 20
12255.1729563957
 30
0.0
 11
18981.999528168
 21
12255.1729563957
 31
0.0
  0
ARC
  5
30E
330
1F
100
AcDbEntity
  8
0
  6
Continuous
 62
     7
 48
2500.0
370
    25
100
AcDbCircle
 10
18981.999490021
 20
12248.6729566342
 30
0.0
 40
6.500000000016371
100
AcDbArc
 50
90.0000000001
 51
270.0000000002
  0
LINE
  5
30F
330
1F
100
AcDbEntity
  8
0
  6
Continuous
 62
     7
 48
50.0
370
    25
100
AcDbLine
 10
18981.999528168
 20
12242.1729598527
 30
0.0
 11
18986.9996426089
 21
12242.1729598527
 31
0.0
  0
ARC
  5
310
330
1F
100
AcDbEntity
  8
0
  6
Continuous
 62
     7
 48
2500.0
370
    25
100
AcDbCircle
 10
18986.999490021
 20
12248.6729566342
 30
0.0
 40
6.499999999998181
100
AcDbArc
 50
270.0
 51
90.0000000001
  0
LINE
  5
311
330
1F
100
AcDbEntity
  8
0
  6
Continuous
 62
     7
 48
50.0
370
    25
100
AcDbLine
 10
18986.9996426089
 20
12395.1729569917
 30
0.0
 11
18981.999528168
 21
12395.1729569917
 31
0.0
  0
ARC
  5
312
330
1F
100
AcDbEntity
  8
0
  6
Continuous
 62
     7
 48
2500.0
370
    25
100
AcDbCircle
 10
18981.999490021
 20
12388.6729566342
 30
0.0
 40
6.5
100
AcDbArc
 50
89.9999999999
 51
269.9999999999
  0
LINE
  5
313
330
1F
100
AcDbEntity
  8
0
  6
Continuous
 62
     7
 48
50.0
370
    25
100
AcDbLine
 10
18981.999528168
 20
12382.1729604488
 30
0.0
 11
18986.9996426089
 21
12382.1729604488
 31
0.0
  0
ARC
  5
314
330
1F
100
AcDbEntity
  8
0
  6
Continuous
 62
     7
 48
2500.0
370
    25
100
AcDbCircle
 10
18986.999490021
 20
12388.6729566342
 30
0.0
 40
6.5
100
AcDbArc
 50
270.0
 51
89.9999999996
  0
LINE
  5
315
330
1F
100
AcDbEntity
  8
0
  6
Continuous
 62
     7
 48
50.0
370
    25
100
AcDbLine
 10
18981.999528168
 20
12312.1729527002
 30
0.0
 11
18986.9996426089
 21
12312.1729527002
 31
0.0
  0
ARC
  5
316
330
1F
100
AcDbEntity
  8
0
  6
Continuous
 62
     7
 48
2500.0
370
    25
100
AcDbCircle
 10
18986.999490021
 20
12318.6729566342
 30
0.0
 40
6.5
100
AcDbArc
 50
270.0000000004
 51
89.9999999995
  0
LINE
  5
317
330
1F
100
AcDbEntity
  8
0
  6
Continuous
 62
     7
 48
50.0
370
    25
100
AcDbLine
 10
18986.9996426089
 20
12325.1729492431
 30
0.0
 11
18981.999528168
 21
12325.1729492431
 31
0.0
  0
ARC
  5
318
330
1F
100
AcDbEntity
  8
0
  6
Continuous
 62
     7
 48
2500.0
370
    25
100
AcDbCircle
 10
18981.999490021
 20
12318.6729566342
 30
0.0
 40
6.500000000003638
100
AcDbArc
 50
90.0
 51
270.0000000002
  0
LINE
  5
319
330
1F
100
AcDbEntity
  8
0
  6
Continuous
 62
     7
 48
50.0
370
    25
100
AcDbLine
 10
18981.999528168
 20
12932.1729723697
 30
0.0
 11
18986.9996426089
 21
12932.1729723697
 31
0.0
  0
ARC
  5
31A
330
1F
100
AcDbEntity
  8
0
  6
Continuous
 62
     7
 48
2500.0
370
    25
100
AcDbCircle
 10
18986.999490021
 20
12938.6729566342
 30
0.0
 40
6.500000000005457
100
AcDbArc
 50
269.9999999999
 51
90.0000000001
  0
LINE
  5
31B
330
1F
100
AcDbEntity
  8
0
  6
Continuous
 62
     7
 48
50.0
370
    25
100
AcDbLine
 10
18986.9996426089
 20
12945.1729838138
 30
0.0
 11
18981.999528168
 21
12945.1729838138
 31
0.0
  0
ARC
  5
31C
330
1F
100
AcDbEntity
  8
0
  6
Continuous
 62
     7
 48
2500.0
370
    25
100
AcDbCircle
 10
18981.999490021
 20
12938.6729566342
 30
0.0
 40
6.500000000020009
100
AcDbArc
 50
90.0000000003
 51
269.9999999995
  0
LINE
  5
31D
330
1F
100
AcDbEntity
  8
0
  6
Continuous
 62
     7
 48
50.0
370
    25
100
AcDbLine
 10
18977.999818085
 20
13083.8759128337
 30
0.0
 11
18977.999818085
 21
13069.5319954639
 31
0.0
  0
LINE
  5
31E
330
1F
100
AcDbEntity
  8
0
  6
Continuous
 62
     7
 48
50.0
370
    25
100
AcDbLine
 10
18990.9993526919
 20
13063.4700242763
 30
0.0
 11
18990.9993526919
 21
13077.8139416461
 31
0.0
  0
LINE
  5
31F
330
1F
100
AcDbEntity
  8
0
  6
Continuous
 62
     7
 48
50.0
370
    25
100
AcDbLine
 10
19041.9999477847
 20
13118.6729852443
 30
0.0
 11
19037.4995586856
 21
13118.6729852443
 31
0.0
  0
LINE
  5
320
330
1F
100
AcDbEntity
  8
0
  6
Continuous
 62
     7
 48
50.0
370
    25
100
AcDbLine
 10
19041.9999477847
 20
13118.6729852443
 30
0.0
 11
19041.9999477847
 21
13110.3044931179
 31
0.0
  0
LINE
  5
321
330
1F
100
AcDbEntity
  8
0
  6
Continuous
 62
     7
 48
50.0
370
    25
100
AcDbLine
 10
19041.9999477847
 20
12983.4160391574
 30
0.0
 11
19041.9999477847
 21
10748.6729804759
 31
0.0
  0
LINE
  5
322
330
1F
100
AcDbEntity
  8
0
  6
Continuous
 62
     7
 48
50.0
370
    25
100
AcDbLine
 10
19041.9999477847
 20
10748.6729804759
 30
0.0
 11
19037.4995586856
 21
10748.6729804759
 31
0.0
  0
LINE
  5
323
330
1F
100
AcDbEntity
  8
0
  6
Continuous
 62
     7
 48
50.0
370
    25
100
AcDbLine
 10
18926.9992229922
 20
13037.0414439922
 30
0.0
 11
18926.9992229922
 21
10748.6729804759
 31
0.0
  0
LINE
  5
324
330
1F
100
AcDbEntity
  8
0
  6
Continuous
 62
     7
 48
50.0
370
    25
100
AcDbLine
 10
18931.4996120913
 20
10748.6729804759
 30
0.0
 11
18926.9992229922
 21
10748.6729804759
 31
0.0
  0
LINE
  5
325
330
1F
100
AcDbEntity
  8
0
  6
Continuous
 62
     7
 48
50.0
370
    25
100
AcDbLine
 10
16521.4997646792
 20
13118.6729852443
 30
0.0
 11
16521.4997646792
 21
10748.6729804759
 31
0.0
  0
LINE
  5
326
330
1F
100
AcDbEntity
  8
0
  6
Continuous
 62
     7
 48
50.0
370
    25
100
AcDbLine
 10
16627.4997112734
 20
13118.6729852443
 30
0.0
 11
16521.4997646792
 21
13118.6729852443
 31
0.0
  0
LINE
  5
327
330
1F
100
AcDbEntity
  8
0
  6
Continuous
 62
     7
 48
50.0
370
    25
100
AcDbLine
 10
16627.4997112734
 20
13118.6729852443
 30
0.0
 11
16627.4997112734
 21
10748.6729804759
 31
0.0
  0
LINE
  5
328
330
1F
100
AcDbEntity
  8
0
  6
Continuous
 62
     7
 48
50.0
370
    25
100
AcDbLine
 10
16627.4997112734
 20
10748.6729804759
 30
0.0
 11
16521.4997646792
 21
10748.6729804759
 31
0.0
  0
LINE
  5
329
330
1F
100
AcDbEntity
  8
0
  6
Continuous
 62
     7
 48
50.0
370
    25
100
AcDbLine
 10
16571.9996807559
 20
12982.1729842906
 30
0.0
 11
16576.9997951968
 21
12982.1729842906
 31
0.0
  0
ARC
  5
32A
330
1F
100
AcDbEntity
  8
0
  6
Continuous
 62
     7
 48
2500.0
370
    25
100
AcDbCircle
 10
16576.999490021
 20
12988.6729566342
 30
0.0
 40
6.500000000003638
100
AcDbArc
 50
270.0
 51
90.0000000001
  0
LINE
  5
32B
330
1F
100
AcDbEntity
  8
0
  6
Continuous
 62
     7
 48
50.0
370
    25
100
AcDbLine
 10
16576.9997951968
 20
12995.1729361301
 30
0.0
 11
16571.9996807559
 21
12995.1729361301
 31
0.0
  0
ARC
  5
32C
330
1F
100
AcDbEntity
  8
0
  6
Continuous
 62
     7
 48
2500.0
370
    25
100
AcDbCircle
 10
16571.999490021
 20
12988.6729566342
 30
0.0
 40
6.500000000009095
100
AcDbArc
 50
89.9999999999
 51
270.0000000004
  0
LINE
  5
32D
330
1F
100
AcDbEntity
  8
0
  6
Continuous
 62
     7
 48
50.0
370
    25
100
AcDbLine
 10
16576.9997951968
 20
12255.1729563957
 30
0.0
 11
16571.9996807559
 21
12255.1729563957
 31
0.0
  0
ARC
  5
32E
330
1F
100
AcDbEntity
  8
0
  6
Continuous
 62
     7
 48
2500.0
370
    25
100
AcDbCircle
 10
16571.9994900211
 20
12248.6729566342
 30
0.0
 40
6.50000000001819
100
AcDbArc
 50
90.0000000001
 51
270.0000000002
  0
LINE
  5
32F
330
1F
100
AcDbEntity
  8
0
  6
Continuous
 62
     7
 48
50.0
370
    25
100
AcDbLine
 10
16571.9996807559
 20
12242.1729598527
 30
0.0
 11
16576.9997951968
 21
12242.1729598527
 31
0.0
  0
ARC
  5
330
330
1F
100
AcDbEntity
  8
0
  6
Continuous
 62
     7
 48
2500.0
370
    25
100
AcDbCircle
 10
16576.9994900211
 20
12248.6729566342
 30
0.0
 40
6.499999999998181
100
AcDbArc
 50
270.0
 51
90.0000000001
  0
LINE
  5
331
330
1F
100
AcDbEntity
  8
0
  6
Continuous
 62
     7
 48
50.0
370
    25
100
AcDbLine
 10
16576.9997951968
 20
12395.1729569917
 30
0.0
 11
16571.9996807559
 21
12395.1729569917
 31
0.0
  0
ARC
  5
332
330
1F
100
AcDbEntity
  8
0
  6
Continuous
 62
     7
 48
2500.0
370
    25
100
AcDbCircle
 10
16571.999490021
 20
12388.6729566342
 30
0.0
 40
6.500000000001819
100
AcDbArc
 50
89.9999999999
 51
269.9999999999
  0
LINE
  5
333
330
1F
100
AcDbEntity
  8
0
  6
Continuous
 62
     7
 48
50.0
370
    25
100
AcDbLine
 10
16571.9996807559
 20
12382.1729604488
 30
0.0
 11
16576.9997951968
 21
12382.1729604488
 31
0.0
  0
ARC
  5
334
330
1F
100
AcDbEntity
  8
0
  6
Continuous
 62
     7
 48
2500.0
370
    25
100
AcDbCircle
 10
16576.999490021
 20
12388.6729566342
 30
0.0
 40
6.5
100
AcDbArc
 50
270.0
 51
89.9999999996
  0
LINE
  5
335
330
1F
100
AcDbEntity
  8
0
  6
Continuous
 62
     7
 48
50.0
370
    25
100
AcDbLine
 10
16571.9996807559
 20
12312.1729527002
 30
0.0
 11
16576.9997951968
 21
12312.1729527002
 31
0.0
  0
ARC
  5
336
330
1F
100
AcDbEntity
  8
0
  6
Continuous
 62
     7
 48
2500.0
370
    25
100
AcDbCircle
 10
16576.999490021
 20
12318.6729566342
 30
0.0
 40
6.500000000001819
100
AcDbArc
 50
270.0000000004
 51
89.9999999995
  0
LINE
  5
337
330
1F
100
AcDbEntity
  8
0
  6
Continuous
 62
     7
 48
50.0
370
    25
100
AcDbLine
 10
16576.9997951968
 20
12325.1729492431
 30
0.0
 11
16571.9996807559
 21
12325.1729492431
 31
0.0
  0
ARC
  5
338
330
1F
100
AcDbEntity
  8
0
  6
Continuous
 62
     7
 48
2500.0
370
    25
100
AcDbCircle
 10
16571.9994900211
 20
12318.6729566342
 30
0.0
 40
6.500000000005457
100
AcDbArc
 50
90.0
 51
270.0000000002
  0
LINE
  5
339
330
1F
100
AcDbEntity
  8
0
  6
Continuous
 62
     7
 48
50.0
370
    25
100
AcDbLine
 10
16571.9996807559
 20
12932.1729723697
 30
0.0
 11
16576.9997951968
 21
12932.1729723697
 31
0.0
  0
ARC
  5
33A
330
1F
100
AcDbEntity
  8
0
  6
Continuous
 62
     7
 48
2500.0
370
    25
100
AcDbCircle
 10
16576.9994900211
 20
12938.6729566342
 30
0.0
 40
6.500000000005457
100
AcDbArc
 50
269.9999999999
 51
90.0000000001
  0
LINE
  5
33B
330
1F
100
AcDbEntity
  8
0
  6
Continuous
 62
     7
 48
50.0
370
    25
100
AcDbLine
 10
16576.9997951968
 20
12945.1729838138
 30
0.0
 11
16571.9996807559
 21
12945.1729838138
 31
0.0
  0
ARC
  5
33C
330
1F
100
AcDbEntity
  8
0
  6
Continuous
 62
     7
 48
2500.0
370
    25
100
AcDbCircle
 10
16571.999490021
 20
12938.6729566342
 30
0.0
 40
6.50000000001819
100
AcDbArc
 50
90.0000000003
 51
269.9999999995
  0
LINE
  5
33D
330
1F
100
AcDbEntity
  8
0
  6
Continuous
 62
     7
 48
50.0
370
    25
100
AcDbLine
 10
16567.9990169985
 20
13097.1729342227
 30
0.0
 11
16567.9990169985
 21
13050.1729432826
 31
0.0
  0
ARC
  5
33E
330
1F
100
AcDbEntity
  8
0
  6
Continuous
 62
     7
 48
2500.0
370
    25
100
AcDbCircle
 10
16574.4994900211
 20
13050.1729566342
 30
0.0
 40
6.50000000001819
100
AcDbArc
 50
179.9999999946
 51
0.0000000056
  0
LINE
  5
33F
330
1F
100
AcDbEntity
  8
0
  6
Continuous
 62
     7
 48
50.0
370
    25
100
AcDbLine
 10
16580.9995052798
 20
13050.1729432826
 30
0.0
 11
16580.9995052798
 21
13097.1729342227
 31
0.0
  0
ARC
  5
340
330
1F
100
AcDbEntity
  8
0
  6
Continuous
 62
     7
 48
2500.0
370
    25
100
AcDbCircle
 10
16574.4994900211
 20
13097.1729566342
 30
0.0
 40
6.500000000007276
100
AcDbArc
 50
0.0000000056
 51
179.9999999991
  0
LINE
  5
341
330
1F
100
AcDbEntity
  8
0
  6
Continuous
 62
     7
 48
50.0
370
    25
100
AcDbLine
 10
16631.9991466982
 20
13118.6729852443
 30
0.0
 11
16627.4997112734
 21
13118.6729852443
 31
0.0
  0
LINE
  5
342
330
1F
100
AcDbEntity
  8
0
  6
Continuous
 62
     7
 48
50.0
370
    25
100
AcDbLine
 10
16631.9991466982
 20
13118.6729852443
 30
0.0
 11
16631.9991466982
 21
10748.6729804759
 31
0.0
  0
LINE
  5
343
330
1F
100
AcDbEntity
  8
0
  6
Continuous
 62
     7
 48
50.0
370
    25
100
AcDbLine
 10
16631.9991466982
 20
10748.6729804759
 30
0.0
 11
16627.4997112734
 21
10748.6729804759
 31
0.0
  0
LINE
  5
344
330
1F
100
AcDbEntity
  8
0
  6
Continuous
 62
     7
 48
50.0
370
    25
100
AcDbLine
 10
16516.9993755801
 20
13118.6729852443
 30
0.0
 11
16516.9993755801
 21
10748.6729804759
 31
0.0
  0
LINE
  5
345
330
1F
100
AcDbEntity
  8
0
  6
Continuous
 62
     7
 48
50.0
370
    25
100
AcDbLine
 10
16521.4997646792
 20
13118.6729852443
 30
0.0
 11
16516.9993755801
 21
13118.6729852443
 31
0.0
  0
LINE
  5
346
330
1F
100
AcDbEntity
  8
0
  6
Continuous
 62
     7
 48
50.0
370
    25
100
AcDbLine
 10
16521.4997646792
 20
10748.6729804759
 30
0.0
 11
16516.9993755801
 21
10748.6729804759
 31
0.0
  0
LINE
  5
347
330
1F
100
AcDbEntity
  8
0
  6
Continuous
 62
     8
 48
50.0
370
    25
100
AcDbLine
 10
16690.5080196841
 20
12788.3368317371
 30
0.0
 11
16698.365342377
 21
12795.0279299503
 31
0.0
  0
LINE
  5
348
330
1F
100
AcDbEntity
  8
0
  6
Continuous
 62
     8
 48
50.0
370
    25
100
AcDbLine
 10
16731.999528168
 20
12823.6725513225
 30
0.0
 11
17670.5142376406
 21
13622.9499761348
 31
0.0
  0
LINE
  5
349
330
1F
100
AcDbEntity
  8
0
  6
Continuous
 62
     8
 48
50.0
370
    25
100
AcDbLine
 10
16695.6340191348
 20
12862.317997623
 30
0.0
 11
16703.4903881533
 21
12869.0090362316
 31
0.0
  0
LINE
  5
34A
330
1F
100
AcDbEntity
  8
0
  6
Continuous
 62
     8
 48
50.0
370
    25
100
AcDbLine
 10
16729.5066235049
 20
12891.1654536014
 30
0.0
 11
17617.6930782778
 21
13647.5808803325
 31
0.0
  0
LINE
  5
34B
330
1F
100
AcDbEntity
  8
0
  6
Continuous
 62
     8
 48
50.0
370
    25
100
AcDbLine
 10
17665.8116695864
 20
13688.5600272899
 30
0.0
 11
17669.9630138857
 21
13692.0955363994
 31
0.0
  0
LINE
  5
34C
330
1F
100
AcDbEntity
  8
0
  6
Continuous
 62
     8
 48
50.0
370
    25
100
AcDbLine
 10
16624.499451874
 20
14248.6728612667
 30
0.0
 11
16624.499451874
 21
14237.6033250575
 31
0.0
  0
LINE
  5
34D
330
1F
100
AcDbEntity
  8
0
  6
Continuous
 62
     8
 48
50.0
370
    25
100
AcDbLine
 10
16624.499451874
 20
14110.7148114925
 30
0.0
 11
16624.499451874
 21
13118.6729852443
 31
0.0
  0
LINE
  5
34E
330
1F
100
AcDbEntity
  8
0
  6
Continuous
 62
     8
 48
50.0
370
    25
100
AcDbLine
 10
16524.4990704043
 20
14157.3456708675
 30
0.0
 11
16524.4990704043
 21
13118.6729852443
 31
0.0
  0
LINE
  5
34F
330
1F
100
AcDbEntity
  8
0
  6
Continuous
 62
     8
 48
50.0
370
    25
100
AcDbLine
 10
18931.4996120913
 20
13034.9430028682
 30
0.0
 11
18931.4996120913
 21
10748.6729804759
 31
0.0
  0
LINE
  5
350
330
1F
100
AcDbEntity
  8
0
  6
Continuous
 62
     8
 48
50.0
370
    25
100
AcDbLine
 10
19037.4995586856
 20
13118.6729852443
 30
0.0
 11
19037.4995586856
 21
13112.4028746372
 31
0.0
  0
LINE
  5
351
330
1F
100
AcDbEntity
  8
0
  6
Continuous
 62
     8
 48
50.0
370
    25
100
AcDbLine
 10
19037.4995586856
 20
12985.5144206768
 30
0.0
 11
19037.4995586856
 21
10748.6729804759
 31
0.0
  0
DIMENSION
  5
352
330
1F
100
AcDbEntity
  8
0
  6
Continuous
 62
     7
 48
50.0
370
    18
100
AcDbDimension
  2
_D_2
 10
20396.3319140657
 20
12148.6729566341
 30
0.0
 11
20396.3319140657
 21
12485.0974620262
 31
0.0
 70
   160
  1
<>
 71
     2
 42
-1.0
  3
SLDDIMSTYLE2
100
AcDbAlignedDimension
 13
19879.427183596
 23
12830.1433418668
 33
0.0
 14
16521.1003678862
 24
12148.6729566341
 34
0.0
 50
90.0
100
AcDbRotatedDimension
  0
DIMENSION
  5
35F
330
1F
100
AcDbEntity
  8
0
  6
Continuous
 62
     7
 48
50.0
370
    18
100
AcDbDimension
  2
_D_3
 10
15229.4438267552
 20
12148.6729566341
 30
0.0
 11
15229.4438267552
 21
13071.1626271033
 31
0.0
 70
   160
  1
<>
 71
     2
 42
-1.0
  3
SLDDIMSTYLE3
100
AcDbAlignedDimension
 13
15729.4438267552
 23
14765.3123623775
 33
0.0
 14
16521.1003678862
 24
12148.6729566341
 34
0.0
 50
90.0
100
AcDbRotatedDimension
  0
DIMENSION
  5
369
330
1F
100
AcDbEntity
  8
0
  6
Continuous
 62
     7
 48
50.0
370
    18
100
AcDbDimension
  2
_D_4
 10
16143.4835044642
 20
14339.9814379401
 30
0.0
 11
18111.4321332508
 21
12656.5838928785
 31
0.0
 70
   162
  1
<>
 71
     1
 42
-1.0
  3
SLDDIMSTYLE4
100
AcDb2LineAngularDimension
 13
-852.1013878442
 23
12148.6729566341
 33
0.0
 14
16521.1003678862
 24
12148.6729566341
 34
0.0
 15
17756.7113653894
 25
13587.7209320416
 35
0.0
 16
18130.4618282319
 26
12749.9749199869
 36
0.0
  0
DIMENSION
  5
374
330
1F
100
AcDbEntity
  8
0
  6
Continuous
 62
     7
 48
50.0
370
    18
100
AcDbDimension
  2
_D_5
 10
18986.999490021
 20
10529.6048778515
 30
0.0
 11
17658.2339104722
 21
10529.6048778515
 31
0.0
 70
   160
  1
<>
 71
     2
 42
-1.0
  3
SLDDIMSTYLE1
100
AcDbAlignedDimension
 13
16576.9994900211
 23
12248.6729566342
 33
0.0
 14
18986.999490021
 24
12248.6729566342
 34
0.0
 50
0.0
100
AcDbRotatedDimension
  0
DIMENSION
  5
37E
330
1F
100
AcDbEntity
  8
0
  6
Continuous
 62
     7
 48
50.0
370
    18
100
AcDbDimension
  2
_D_6
 10
19896.3319140657
 20
15415.9477586146
 30
0.0
 11
18045.5146735676
 21
15415.9477586146
 31
0.0
 70
   160
  1
<>
 71
     2
 42
-1.0
  3
SLDDIMSTYLE3
100
AcDbAlignedDimension
 13
15729.4438267552
 23
14765.3123623775
 33
0.0
 14
19896.3319140657
 24
12866.3956533483
 34
0.0
100
AcDbRotatedDimension
  0
DIMENSION
  5
388
330
1F
100
AcDbEntity
  8
0
  6
Continuous
 62
     7
 48
50.0
370
    18
100
AcDbDimension
  2
_D_7
 10
17890.6621226232
 20
14005.1203450104
 30
0.0
 11
17106.6741381231
 21
14370.6999460845
 31
0.0
 70
   160
  1
<>
 71
     2
 42
-1.0
  3
SLDDIMSTYLE1
100
AcDbAlignedDimension
 13
15746.3485572248
 23
14801.5646738589
 33
0.0
 14
17812.7303116684
 24
13837.9950370902
 34
0.0
 50
-25.0
100
AcDbRotatedDimension
  0
DIMENSION
  5
392
330
1F
100
AcDbEntity
  8
0
  6
Continuous
 62
     7
 48
50.0
370
    18
100
AcDbDimension
  2
_D_8
 10
16190.1828223865
 20
15026.2789745659
 30
0.0
 11
17961.3569821494
 21
15026.2789745659
 31
0.0
 70
   160
  1
<>
 71
     2
 42
-1.0
  3
SLDDIMSTYLE5
100
AcDbAlignedDimension
 13
19416.638544237
 23
12935.6074366107
 33
0.0
 14
16190.1828223865
 24
14440.1284484076
 34
0.0
100
AcDbRotatedDimension
  0
DIMENSION
  5
39D
330
1F
100
AcDbEntity
  8
0
  6
Continuous
 62
     7
 48
50.0
370
    18
100
AcDbDimension
  2
_D_9
 10
15858.7242709516
 20
12148.6729566341
 30
0.0
 11
15858.7242709516
 21
13222.954415685
 31
0.0
 70
   160
  1
<>
 71
     2
 42
-1.0
  3
SLDDIMSTYLE3
100
AcDbAlignedDimension
 13
16249.2113426208
 23
14522.9407892691
 33
0.0
 14
16521.1003678862
 24
12148.6729566341
 34
0.0
 50
90.0
100
AcDbRotatedDimension
  0
DIMENSION
  5
3A6
330
1F
100
AcDbEntity
  8
0
  6
Continuous
 62
     7
 48
50.0
370
    18
100
AcDbDimension
  2
_D_10
 10
20934.2488943624
 20
12148.6729566341
 30
0.0
 11
20934.2488943624
 21
12565.9124504606
 31
0.0
 70
   160
  1
<>
 71
     2
 42
-1.0
  3
SLDDIMSTYLE2
100
AcDbAlignedDimension
 13
19442.133676351
 23
13034.0566531565
 33
0.0
 14
16521.1003678862
 24
12148.6729566341
 34
0.0
 50
90.0
100
AcDbRotatedDimension
  0
LINE
  5
3B2
330
1F
100
AcDbEntity
  8
0
  6
Continuous
 62
     7
 48
50.0
370
    25
100
AcDbLine
 10
8008.4880191839
 20
7560.1623605975
 30
0.0
 11
8044.0879661596
 21
7560.1623605975
 31
0.0
  0
LINE
  5
3B3
330
1F
100
AcDbEntity
  8
0
  6
Continuous
 62
     7
 48
50.0
370
    25
100
AcDbLine
 10
10342.8880173719
 20
7560.1623605975
 30
0.0
 11
10378.4880239523
 21
7560.1623605975
 31
0.0
  0
LINE
  5
3B4
330
1F
100
AcDbEntity
  8
0
  6
Continuous
 62
     7
 48
50.0
370
    25
100
AcDbLine
 10
9183.8880378759
 20
7560.1623605975
 30
0.0
 11
9203.0880350626
 21
7560.1623605975
 31
0.0
  0
LINE
  5
3B5
330
1F
100
AcDbEntity
  8
0
  6
Continuous
 62
     7
 48
50.0
370
    25
100
AcDbLine
 10
10378.4880239523
 20
7645.4370569476
 30
0.0
 11
10342.8880173719
 21
7645.4370569476
 31
0.0
  0
LINE
  5
3B6
330
1F
100
AcDbEntity
  8
0
  6
Continuous
 62
     7
 48
50.0
370
    25
100
AcDbLine
 10
9203.0880350626
 20
7645.4370569476
 30
0.0
 11
9183.8880378759
 21
7645.4370569476
 31
0.0
  0
LINE
  5
3B7
330
1F
100
AcDbEntity
  8
0
  6
Continuous
 62
     7
 48
50.0
370
    25
100
AcDbLine
 10
8044.0879661596
 20
7645.4370569476
 30
0.0
 11
8008.4880191839
 21
7645.4370569476
 31
0.0
  0
LINE
  5
3B8
330
1F
100
AcDbEntity
  8
0
  6
Continuous
 62
     7
 48
50.0
370
    25
100
AcDbLine
 10
8008.4880191839
 20
5639.6959375628
 30
0.0
 11
8044.0879661596
 21
5639.6959375628
 31
0.0
  0
LINE
  5
3B9
330
1F
100
AcDbEntity
  8
0
  6
Continuous
 62
     7
 48
50.0
370
    25
100
AcDbLine
 10
10342.8880173719
 20
5639.6959375628
 30
0.0
 11
10378.4880239523
 21
5639.6959375628
 31
0.0
  0
LINE
  5
3BA
330
1F
100
AcDbEntity
  8
0
  6
Continuous
 62
     7
 48
50.0
370
    25
100
AcDbLine
 10
9183.8880378759
 20
5639.6959375628
 30
0.0
 11
9203.0880350626
 21
5639.6959375628
 31
0.0
  0
LINE
  5
3BB
330
1F
100
AcDbEntity
  8
0
  6
Continuous
 62
     7
 48
50.0
370
    25
100
AcDbLine
 10
10378.4880239523
 20
5724.9706339129
 30
0.0
 11
10342.9880339658
 21
5724.9706339129
 31
0.0
  0
LINE
  5
3BC
330
1F
100
AcDbEntity
  8
0
  6
Continuous
 62
     7
 48
50.0
370
    25
100
AcDbLine
 10
9202.9880184686
 20
5724.9706339129
 30
0.0
 11
9183.9880246675
 21
5724.9706339129
 31
0.0
  0
LINE
  5
3BD
330
1F
100
AcDbEntity
  8
0
  6
Continuous
 62
     7
 48
50.0
370
    25
100
AcDbLine
 10
8043.9880687749
 20
5724.9706339129
 30
0.0
 11
8008.4880191839
 21
5724.9706339129
 31
0.0
  0
LINE
  5
3BE
330
1F
100
AcDbEntity
  8
0
  6
Continuous
 62
     7
 48
50.0
370
    25
100
AcDbLine
 10
8008.4880191839
 20
6873.1811594256
 30
0.0
 11
8044.0879661596
 21
6873.1811594256
 31
0.0
  0
LINE
  5
3BF
330
1F
100
AcDbEntity
  8
0
  6
Continuous
 62
     7
 48
50.0
370
    25
100
AcDbLine
 10
10342.8880173719
 20
6873.1811594256
 30
0.0
 11
10378.4880239523
 21
6873.1811594256
 31
0.0
  0
LINE
  5
3C0
330
1F
100
AcDbEntity
  8
0
  6
Continuous
 62
     7
 48
50.0
370
    25
100
AcDbLine
 10
9183.8880378759
 20
6873.1811594256
 30
0.0
 11
9203.0880350626
 21
6873.1811594256
 31
0.0
  0
LINE
  5
3C1
330
1F
100
AcDbEntity
  8
0
  6
Continuous
 62
     7
 48
50.0
370
    25
100
AcDbLine
 10
10378.4880239523
 20
6958.4558557757
 30
0.0
 11
10342.8880173719
 21
6958.4558557757
 31
0.0
  0
LINE
  5
3C2
330
1F
100
AcDbEntity
  8
0
  6
Continuous
 62
     7
 48
50.0
370
    25
100
AcDbLine
 10
9203.0880350626
 20
6958.4558557757
 30
0.0
 11
9183.8880378759
 21
6958.4558557757
 31
0.0
  0
LINE
  5
3C3
330
1F
100
AcDbEntity
  8
0
  6
Continuous
 62
     7
 48
50.0
370
    25
100
AcDbLine
 10
8044.0879661596
 20
6958.4558557757
 30
0.0
 11
8008.4880191839
 21
6958.4558557757
 31
0.0
  0
LINE
  5
3C4
330
1F
100
AcDbEntity
  8
0
  6
Continuous
 62
     7
 48
50.0
370
    25
100
AcDbLine
 10
8008.4880191839
 20
8793.6475824602
 30
0.0
 11
8043.9880687749
 21
8793.6475824602
 31
0.0
  0
LINE
  5
3C5
330
1F
100
AcDbEntity
  8
0
  6
Continuous
 62
     7
 48
50.0
370
    25
100
AcDbLine
 10
10342.9880339658
 20
8793.6475824602
 30
0.0
 11
10378.4880239523
 21
8793.6475824602
 31
0.0
  0
LINE
  5
3C6
330
1F
100
AcDbEntity
  8
0
  6
Continuous
 62
     7
 48
50.0
370
    25
100
AcDbLine
 10
9183.9880246675
 20
8793.6475824602
 30
0.0
 11
9202.9880184686
 21
8793.6475824602
 31
0.0
  0
LINE
  5
3C7
330
1F
100
AcDbEntity
  8
0
  6
Continuous
 62
     7
 48
50.0
370
    25
100
AcDbLine
 10
10378.4880239523
 20
8878.9222788103
 30
0.0
 11
10342.8880173719
 21
8878.9222788103
 31
0.0
  0
LINE
  5
3C8
330
1F
100
AcDbEntity
  8
0
  6
Continuous
 62
     7
 48
50.0
370
    25
100
AcDbLine
 10
9203.0880350626
 20
8878.9222788103
 30
0.0
 11
9183.8880378759
 21
8878.9222788103
 31
0.0
  0
LINE
  5
3C9
330
1F
100
AcDbEntity
  8
0
  6
Continuous
 62
     7
 48
50.0
370
    25
100
AcDbLine
 10
8044.0879661596
 20
8878.9222788103
 30
0.0
 11
8008.4880191839
 21
8878.9222788103
 31
0.0
  0
LINE
  5
3CA
330
1F
100
AcDbEntity
  8
0
  6
Continuous
 62
     7
 48
50.0
370
    25
100
AcDbLine
 10
9202.9880184686
 20
7271.1208414324
 30
0.0
 11
10342.9880339658
 21
7271.1208414324
 31
0.0
  0
LINE
  5
3CB
330
1F
100
AcDbEntity
  8
0
  6
Continuous
 62
     7
 48
50.0
370
    25
100
AcDbLine
 10
9202.9880184686
 20
7529.4178079851
 30
0.0
 11
9202.9880184686
 21
7271.1208414324
 31
0.0
  0
LINE
  5
3CC
330
1F
100
AcDbEntity
  8
0
  6
Continuous
 62
     7
 48
50.0
370
    25
100
AcDbLine
 10
9203.0880350626
 20
7529.4178079851
 30
0.0
 11
9202.9880184686
 21
7529.4178079851
 31
0.0
  0
LINE
  5
3CD
330
1F
100
AcDbEntity
  8
0
  6
Continuous
 62
     7
 48
50.0
370
    25
100
AcDbLine
 10
9203.0880350626
 20
7529.4178079851
 30
0.0
 11
9203.0880350626
 21
7787.7157282122
 31
0.0
  0
LINE
  5
3CE
330
1F
100
AcDbEntity
  8
0
  6
Continuous
 62
     7
 48
50.0
370
    25
100
AcDbLine
 10
9203.0880350626
 20
7787.7157282122
 30
0.0
 11
9202.9880184686
 21
7787.7157282122
 31
0.0
  0
LINE
  5
3CF
330
1F
100
AcDbEntity
  8
0
  6
Continuous
 62
     7
 48
50.0
370
    25
100
AcDbLine
 10
9202.9880184686
 20
8820.9064554461
 30
0.0
 11
9202.9880184686
 21
7787.7157282122
 31
0.0
  0
LINE
  5
3D0
330
1F
100
AcDbEntity
  8
0
  6
Continuous
 62
     7
 48
50.0
370
    25
100
AcDbLine
 10
9203.0880350626
 20
8820.9064554461
 30
0.0
 11
9202.9880184686
 21
8820.9064554461
 31
0.0
  0
LINE
  5
3D1
330
1F
100
AcDbEntity
  8
0
  6
Continuous
 62
     7
 48
50.0
370
    25
100
AcDbLine
 10
9203.0880350626
 20
8820.9064554461
 30
0.0
 11
9203.0880350626
 21
9079.2043756731
 31
0.0
  0
LINE
  5
3D2
330
1F
100
AcDbEntity
  8
0
  6
Continuous
 62
     7
 48
50.0
370
    25
100
AcDbLine
 10
9203.0880350626
 20
9079.2043756731
 30
0.0
 11
9202.9880184686
 21
9079.2043756731
 31
0.0
  0
LINE
  5
3D3
330
1F
100
AcDbEntity
  8
0
  6
Continuous
 62
     7
 48
50.0
370
    25
100
AcDbLine
 10
9202.9880184686
 20
9337.5022959002
 30
0.0
 11
9202.9880184686
 21
9079.2043756731
 31
0.0
  0
LINE
  5
3D4
330
1F
100
AcDbEntity
  8
0
  6
Continuous
 62
     7
 48
50.0
370
    25
100
AcDbLine
 10
10342.9880339658
 20
9337.5022959002
 30
0.0
 11
9202.9880184686
 21
9337.5022959002
 31
0.0
  0
LINE
  5
3D5
330
1F
100
AcDbEntity
  8
0
  6
Continuous
 62
     7
 48
50.0
370
    25
100
AcDbLine
 10
10342.9880339658
 20
9079.2043756731
 30
0.0
 11
10342.9880339658
 21
9337.5022959002
 31
0.0
  0
LINE
  5
3D6
330
1F
100
AcDbEntity
  8
0
  6
Continuous
 62
     7
 48
50.0
370
    25
100
AcDbLine
 10
10342.8880173719
 20
9079.2043756731
 30
0.0
 11
10342.9880339658
 21
9079.2043756731
 31
0.0
  0
LINE
  5
3D7
330
1F
100
AcDbEntity
  8
0
  6
Continuous
 62
     7
 48
50.0
370
    25
100
AcDbLine
 10
10342.8880173719
 20
8820.9064554461
 30
0.0
 11
10342.8880173719
 21
9079.2043756731
 31
0.0
  0
LINE
  5
3D8
330
1F
100
AcDbEntity
  8
0
  6
Continuous
 62
     7
 48
50.0
370
    25
100
AcDbLine
 10
10342.8880173719
 20
8820.9064554461
 30
0.0
 11
10342.9880339658
 21
8820.9064554461
 31
0.0
  0
LINE
  5
3D9
330
1F
100
AcDbEntity
  8
0
  6
Continuous
 62
     7
 48
50.0
370
    25
100
AcDbLine
 10
10342.9880339658
 20
7787.7157282122
 30
0.0
 11
10342.9880339658
 21
8820.9064554461
 31
0.0
  0
LINE
  5
3DA
330
1F
100
AcDbEntity
  8
0
  6
Continuous
 62
     7
 48
50.0
370
    25
100
AcDbLine
 10
10342.8880173719
 20
7787.7157282122
 30
0.0
 11
10342.9880339658
 21
7787.7157282122
 31
0.0
  0
LINE
  5
3DB
330
1F
100
AcDbEntity
  8
0
  6
Continuous
 62
     7
 48
50.0
370
    25
100
AcDbLine
 10
10342.8880173719
 20
7529.4178079851
 30
0.0
 11
10342.8880173719
 21
7787.7157282122
 31
0.0
  0
LINE
  5
3DC
330
1F
100
AcDbEntity
  8
0
  6
Continuous
 62
     7
 48
50.0
370
    25
100
AcDbLine
 10
10342.8880173719
 20
7529.4178079851
 30
0.0
 11
10342.9880339658
 21
7529.4178079851
 31
0.0
  0
LINE
  5
3DD
330
1F
100
AcDbEntity
  8
0
  6
Continuous
 62
     7
 48
50.0
370
    25
100
AcDbLine
 10
10342.9880339658
 20
7271.1208414324
 30
0.0
 11
10342.9880339658
 21
7529.4178079851
 31
0.0
  0
LINE
  5
3DE
330
1F
100
AcDbEntity
  8
0
  6
Continuous
 62
     7
 48
50.0
370
    25
100
AcDbLine
 10
9211.9880218065
 20
9329.345519472
 30
0.0
 11
10333.988030628
 21
9329.345519472
 31
0.0
  0
LINE
  5
3DF
330
1F
100
AcDbEntity
  8
0
  6
Continuous
 62
     7
 48
50.0
370
    25
100
AcDbLine
 10
9211.9880218065
 20
7279.2776178606
 30
0.0
 11
9211.9880218065
 21
9329.345519472
 31
0.0
  0
LINE
  5
3E0
330
1F
100
AcDbEntity
  8
0
  6
Continuous
 62
     7
 48
50.0
370
    25
100
AcDbLine
 10
10333.988030628
 20
7279.2776178606
 30
0.0
 11
9211.9880218065
 21
7279.2776178606
 31
0.0
  0
LINE
  5
3E1
330
1F
100
AcDbEntity
  8
0
  6
Continuous
 62
     7
 48
50.0
370
    25
100
AcDbLine
 10
10333.988030628
 20
9329.345519472
 30
0.0
 11
10333.988030628
 21
7279.2776178606
 31
0.0
  0
LINE
  5
3E2
330
1F
100
AcDbEntity
  8
0
  6
Continuous
 62
     7
 48
50.0
370
    25
100
AcDbLine
 10
10342.9880339658
 20
9354.4071268328
 30
0.0
 11
9202.9880184686
 21
9354.4071268328
 31
0.0
  0
LINE
  5
3E3
330
1F
100
AcDbEntity
  8
0
  6
Continuous
 62
     7
 48
50.0
370
    25
100
AcDbLine
 10
10342.9880339658
 20
9354.4071268328
 30
0.0
 11
10342.9880339658
 21
9337.5022959002
 31
0.0
  0
LINE
  5
3E4
330
1F
100
AcDbEntity
  8
0
  6
Continuous
 62
     7
 48
50.0
370
    25
100
AcDbLine
 10
9202.9880184686
 20
9354.4071268328
 30
0.0
 11
9202.9880184686
 21
9337.5022959002
 31
0.0
  0
LINE
  5
3E5
330
1F
100
AcDbEntity
  8
0
  6
Continuous
 62
     7
 48
50.0
370
    25
100
AcDbLine
 10
10333.988030628
 20
7279.2776178606
 30
0.0
 11
10332.9880435026
 21
7280.4277490862
 31
0.0
  0
LINE
  5
3E6
330
1F
100
AcDbEntity
  8
0
  6
Continuous
 62
     7
 48
50.0
370
    25
100
AcDbLine
 10
10332.9880435026
 20
7280.4277490862
 30
0.0
 11
10332.9880435026
 21
9328.6831926592
 31
0.0
  0
LINE
  5
3E7
330
1F
100
AcDbEntity
  8
0
  6
Continuous
 62
     7
 48
50.0
370
    25
100
AcDbLine
 10
10333.988030628
 20
9329.345519472
 30
0.0
 11
10332.9880435026
 21
9328.6831926592
 31
0.0
  0
LINE
  5
3E8
330
1F
100
AcDbEntity
  8
0
  6
Continuous
 62
     7
 48
50.0
370
    25
100
AcDbLine
 10
10332.9880435026
 20
9328.6831926592
 30
0.0
 11
9212.9880387342
 21
9328.6831926592
 31
0.0
  0
LINE
  5
3E9
330
1F
100
AcDbEntity
  8
0
  6
Continuous
 62
     7
 48
50.0
370
    25
100
AcDbLine
 10
9212.9880387342
 20
9328.6831926592
 30
0.0
 11
9211.9880218065
 21
9329.345519472
 31
0.0
  0
LINE
  5
3EA
330
1F
100
AcDbEntity
  8
0
  6
Continuous
 62
     7
 48
50.0
370
    25
100
AcDbLine
 10
9212.9880387342
 20
9328.6831926592
 30
0.0
 11
9212.9880387342
 21
7280.4277490862
 31
0.0
  0
LINE
  5
3EB
330
1F
100
AcDbEntity
  8
0
  6
Continuous
 62
     7
 48
50.0
370
    25
100
AcDbLine
 10
9212.9880387342
 20
7280.4277490862
 30
0.0
 11
9211.9880218065
 21
7279.2776178606
 31
0.0
  0
LINE
  5
3EC
330
1F
100
AcDbEntity
  8
0
  6
Continuous
 62
     7
 48
50.0
370
    25
100
AcDbLine
 10
9212.9880387342
 20
7280.8178018816
 30
0.0
 11
10332.9880435026
 21
7280.8178018816
 31
0.0
  0
LINE
  5
3ED
330
1F
100
AcDbEntity
  8
0
  6
Continuous
 62
     7
 48
50.0
370
    25
100
AcDbLine
 10
9202.9880184686
 20
8837.8112863787
 30
0.0
 11
9202.9880184686
 21
8820.9064554461
 31
0.0
  0
LINE
  5
3EE
330
1F
100
AcDbEntity
  8
0
  6
Continuous
 62
     7
 48
50.0
370
    25
100
AcDbLine
 10
9203.0880350626
 20
8837.8112863787
 30
0.0
 11
9202.9880184686
 21
8837.8112863787
 31
0.0
  0
LINE
  5
3EF
330
1F
100
AcDbEntity
  8
0
  6
Continuous
 62
     7
 48
50.0
370
    25
100
AcDbLine
 10
10342.9880339658
 20
8837.8112863787
 30
0.0
 11
10342.9880339658
 21
8820.9064554461
 31
0.0
  0
LINE
  5
3F0
330
1F
100
AcDbEntity
  8
0
  6
Continuous
 62
     7
 48
50.0
370
    25
100
AcDbLine
 10
10342.8880173719
 20
8837.8112863787
 30
0.0
 11
10342.9880339658
 21
8837.8112863787
 31
0.0
  0
LINE
  5
3F1
330
1F
100
AcDbEntity
  8
0
  6
Continuous
 62
     7
 48
50.0
370
    25
100
AcDbLine
 10
9202.9880184686
 20
7546.3226389178
 30
0.0
 11
9202.9880184686
 21
7529.4178079851
 31
0.0
  0
LINE
  5
3F2
330
1F
100
AcDbEntity
  8
0
  6
Continuous
 62
     7
 48
50.0
370
    25
100
AcDbLine
 10
9203.0880350626
 20
7546.3226389178
 30
0.0
 11
9202.9880184686
 21
7546.3226389178
 31
0.0
  0
LINE
  5
3F3
330
1F
100
AcDbEntity
  8
0
  6
Continuous
 62
     7
 48
50.0
370
    25
100
AcDbLine
 10
10342.9880339658
 20
7546.3226389178
 30
0.0
 11
10342.9880339658
 21
7529.4178079851
 31
0.0
  0
LINE
  5
3F4
330
1F
100
AcDbEntity
  8
0
  6
Continuous
 62
     7
 48
50.0
370
    25
100
AcDbLine
 10
10342.8880173719
 20
7546.3226389178
 30
0.0
 11
10342.9880339658
 21
7546.3226389178
 31
0.0
  0
LINE
  5
3F5
330
1F
100
AcDbEntity
  8
0
  6
Continuous
 62
     7
 48
50.0
370
    25
100
AcDbLine
 10
9212.9880387342
 20
7280.4277490862
 30
0.0
 11
10332.9880435026
 21
7280.4277490862
 31
0.0
  0
LINE
  5
3F6
330
1F
100
AcDbEntity
  8
0
  6
Continuous
 62
     7
 48
50.0
370
    25
100
AcDbLine
 10
8043.9880687749
 20
7271.1208414324
 30
0.0
 11
9183.9880246675
 21
7271.1208414324
 31
0.0
  0
LINE
  5
3F7
330
1F
100
AcDbEntity
  8
0
  6
Continuous
 62
     7
 48
50.0
370
    25
100
AcDbLine
 10
8043.9880687749
 20
7529.4178079851
 30
0.0
 11
8043.9880687749
 21
7271.1208414324
 31
0.0
  0
LINE
  5
3F8
330
1F
100
AcDbEntity
  8
0
  6
Continuous
 62
     7
 48
50.0
370
    25
100
AcDbLine
 10
8044.0879661596
 20
7529.4178079851
 30
0.0
 11
8043.9880687749
 21
7529.4178079851
 31
0.0
  0
LINE
  5
3F9
330
1F
100
AcDbEntity
  8
0
  6
Continuous
 62
     7
 48
50.0
370
    25
100
AcDbLine
 10
8044.0879661596
 20
7529.4178079851
 30
0.0
 11
8044.0879661596
 21
7787.7157282122
 31
0.0
  0
LINE
  5
3FA
330
1F
100
AcDbEntity
  8
0
  6
Continuous
 62
     7
 48
50.0
370
    25
100
AcDbLine
 10
8044.0879661596
 20
7787.7157282122
 30
0.0
 11
8043.9880687749
 21
7787.7157282122
 31
0.0
  0
LINE
  5
3FB
330
1F
100
AcDbEntity
  8
0
  6
Continuous
 62
     7
 48
50.0
370
    25
100
AcDbLine
 10
8043.9880687749
 20
8820.9064554461
 30
0.0
 11
8043.9880687749
 21
7787.7157282122
 31
0.0
  0
LINE
  5
3FC
330
1F
100
AcDbEntity
  8
0
  6
Continuous
 62
     7
 48
50.0
370
    25
100
AcDbLine
 10
8044.0879661596
 20
8820.9064554461
 30
0.0
 11
8043.9880687749
 21
8820.9064554461
 31
0.0
  0
LINE
  5
3FD
330
1F
100
AcDbEntity
  8
0
  6
Continuous
 62
     7
 48
50.0
370
    25
100
AcDbLine
 10
8044.0879661596
 20
8820.9064554461
 30
0.0
 11
8044.0879661596
 21
9079.2043756731
 31
0.0
  0
LINE
  5
3FE
330
1F
100
AcDbEntity
  8
0
  6
Continuous
 62
     7
 48
50.0
370
    25
100
AcDbLine
 10
8044.0879661596
 20
9079.2043756731
 30
0.0
 11
8043.9880687749
 21
9079.2043756731
 31
0.0
  0
LINE
  5
3FF
330
1F
100
AcDbEntity
  8
0
  6
Continuous
 62
     7
 48
50.0
370
    25
100
AcDbLine
 10
8043.9880687749
 20
9337.5022959002
 30
0.0
 11
8043.9880687749
 21
9079.2043756731
 31
0.0
  0
LINE
  5
400
330
1F
100
AcDbEntity
  8
0
  6
Continuous
 62
     7
 48
50.0
370
    25
100
AcDbLine
 10
9183.9880246675
 20
9337.5022959002
 30
0.0
 11
8043.9880687749
 21
9337.5022959002
 31
0.0
  0
LINE
  5
401
330
1F
100
AcDbEntity
  8
0
  6
Continuous
 62
     7
 48
50.0
370
    25
100
AcDbLine
 10
9183.9880246675
 20
9079.2043756731
 30
0.0
 11
9183.9880246675
 21
9337.5022959002
 31
0.0
  0
LINE
  5
402
330
1F
100
AcDbEntity
  8
0
  6
Continuous
 62
     7
 48
50.0
370
    25
100
AcDbLine
 10
9183.8880378759
 20
9079.2043756731
 30
0.0
 11
9183.9880246675
 21
9079.2043756731
 31
0.0
  0
LINE
  5
403
330
1F
100
AcDbEntity
  8
0
  6
Continuous
 62
     7
 48
50.0
370
    25
100
AcDbLine
 10
9183.8880378759
 20
8820.9064554461
 30
0.0
 11
9183.8880378759
 21
9079.2043756731
 31
0.0
  0
LINE
  5
404
330
1F
100
AcDbEntity
  8
0
  6
Continuous
 62
     7
 48
50.0
370
    25
100
AcDbLine
 10
9183.8880378759
 20
8820.9064554461
 30
0.0
 11
9183.9880246675
 21
8820.9064554461
 31
0.0
  0
LINE
  5
405
330
1F
100
AcDbEntity
  8
0
  6
Continuous
 62
     7
 48
50.0
370
    25
100
AcDbLine
 10
9183.9880246675
 20
7787.7157282122
 30
0.0
 11
9183.9880246675
 21
8820.9064554461
 31
0.0
  0
LINE
  5
406
330
1F
100
AcDbEntity
  8
0
  6
Continuous
 62
     7
 48
50.0
370
    25
100
AcDbLine
 10
9183.8880378759
 20
7787.7157282122
 30
0.0
 11
9183.9880246675
 21
7787.7157282122
 31
0.0
  0
LINE
  5
407
330
1F
100
AcDbEntity
  8
0
  6
Continuous
 62
     7
 48
50.0
370
    25
100
AcDbLine
 10
9183.8880378759
 20
7529.4178079851
 30
0.0
 11
9183.8880378759
 21
7787.7157282122
 31
0.0
  0
LINE
  5
408
330
1F
100
AcDbEntity
  8
0
  6
Continuous
 62
     7
 48
50.0
370
    25
100
AcDbLine
 10
9183.8880378759
 20
7529.4178079851
 30
0.0
 11
9183.9880246675
 21
7529.4178079851
 31
0.0
  0
LINE
  5
409
330
1F
100
AcDbEntity
  8
0
  6
Continuous
 62
     7
 48
50.0
370
    25
100
AcDbLine
 10
9183.9880246675
 20
7271.1208414324
 30
0.0
 11
9183.9880246675
 21
7529.4178079851
 31
0.0
  0
LINE
  5
40A
330
1F
100
AcDbEntity
  8
0
  6
Continuous
 62
     7
 48
50.0
370
    25
100
AcDbLine
 10
8052.9880125082
 20
9329.345519472
 30
0.0
 11
9174.9880213296
 21
9329.345519472
 31
0.0
  0
LINE
  5
40B
330
1F
100
AcDbEntity
  8
0
  6
Continuous
 62
     7
 48
50.0
370
    25
100
AcDbLine
 10
8052.9880125082
 20
7279.2776178606
 30
0.0
 11
8052.9880125082
 21
9329.345519472
 31
0.0
  0
LINE
  5
40C
330
1F
100
AcDbEntity
  8
0
  6
Continuous
 62
     7
 48
50.0
370
    25
100
AcDbLine
 10
9174.9880213296
 20
7279.2776178606
 30
0.0
 11
8052.9880125082
 21
7279.2776178606
 31
0.0
  0
LINE
  5
40D
330
1F
100
AcDbEntity
  8
0
  6
Continuous
 62
     7
 48
50.0
370
    25
100
AcDbLine
 10
9174.9880213296
 20
9329.345519472
 30
0.0
 11
9174.9880213296
 21
7279.2776178606
 31
0.0
  0
LINE
  5
40E
330
1F
100
AcDbEntity
  8
0
  6
Continuous
 62
     7
 48
50.0
370
    25
100
AcDbLine
 10
9183.9880246675
 20
9354.4071268328
 30
0.0
 11
8043.9880687749
 21
9354.4071268328
 31
0.0
  0
LINE
  5
40F
330
1F
100
AcDbEntity
  8
0
  6
Continuous
 62
     7
 48
50.0
370
    25
100
AcDbLine
 10
9183.9880246675
 20
9354.4071268328
 30
0.0
 11
9183.9880246675
 21
9337.5022959002
 31
0.0
  0
LINE
  5
410
330
1F
100
AcDbEntity
  8
0
  6
Continuous
 62
     7
 48
50.0
370
    25
100
AcDbLine
 10
8043.9880687749
 20
9354.4071268328
 30
0.0
 11
8043.9880687749
 21
9337.5022959002
 31
0.0
  0
LINE
  5
411
330
1F
100
AcDbEntity
  8
0
  6
Continuous
 62
     7
 48
50.0
370
    25
100
AcDbLine
 10
9174.9880213296
 20
7279.2776178606
 30
0.0
 11
9173.9880342042
 21
7280.4277490862
 31
0.0
  0
LINE
  5
412
330
1F
100
AcDbEntity
  8
0
  6
Continuous
 62
     7
 48
50.0
370
    25
100
AcDbLine
 10
9173.9880342042
 20
7280.4277490862
 30
0.0
 11
9173.9880342042
 21
9328.6831926592
 31
0.0
  0
LINE
  5
413
330
1F
100
AcDbEntity
  8
0
  6
Continuous
 62
     7
 48
50.0
370
    25
100
AcDbLine
 10
9174.9880213296
 20
9329.345519472
 30
0.0
 11
9173.9880342042
 21
9328.6831926592
 31
0.0
  0
LINE
  5
414
330
1F
100
AcDbEntity
  8
0
  6
Continuous
 62
     7
 48
50.0
370
    25
100
AcDbLine
 10
9173.9880342042
 20
9328.6831926592
 30
0.0
 11
8053.9880592382
 21
9328.6831926592
 31
0.0
  0
LINE
  5
415
330
1F
100
AcDbEntity
  8
0
  6
Continuous
 62
     7
 48
50.0
370
    25
100
AcDbLine
 10
8053.9880592382
 20
9328.6831926592
 30
0.0
 11
8052.9880125082
 21
9329.345519472
 31
0.0
  0
LINE
  5
416
330
1F
100
AcDbEntity
  8
0
  6
Continuous
 62
     7
 48
50.0
370
    25
100
AcDbLine
 10
8053.9880592382
 20
9328.6831926592
 30
0.0
 11
8053.9880592382
 21
7280.4277490862
 31
0.0
  0
LINE
  5
417
330
1F
100
AcDbEntity
  8
0
  6
Continuous
 62
     7
 48
50.0
370
    25
100
AcDbLine
 10
8053.9880592382
 20
7280.4277490862
 30
0.0
 11
8052.9880125082
 21
7279.2776178606
 31
0.0
  0
LINE
  5
418
330
1F
100
AcDbEntity
  8
0
  6
Continuous
 62
     7
 48
50.0
370
    25
100
AcDbLine
 10
8053.9880592382
 20
7280.8178018816
 30
0.0
 11
9173.9880342042
 21
7280.8178018816
 31
0.0
  0
LINE
  5
419
330
1F
100
AcDbEntity
  8
0
  6
Continuous
 62
     7
 48
50.0
370
    25
100
AcDbLine
 10
8043.9880687749
 20
8837.8112863787
 30
0.0
 11
8043.9880687749
 21
8820.9064554461
 31
0.0
  0
LINE
  5
41A
330
1F
100
AcDbEntity
  8
0
  6
Continuous
 62
     7
 48
50.0
370
    25
100
AcDbLine
 10
8044.0879661596
 20
8837.8112863787
 30
0.0
 11
8043.9880687749
 21
8837.8112863787
 31
0.0
  0
LINE
  5
41B
330
1F
100
AcDbEntity
  8
0
  6
Continuous
 62
     7
 48
50.0
370
    25
100
AcDbLine
 10
9183.9880246675
 20
8837.8112863787
 30
0.0
 11
9183.9880246675
 21
8820.9064554461
 31
0.0
  0
LINE
  5
41C
330
1F
100
AcDbEntity
  8
0
  6
Continuous
 62
     7
 48
50.0
370
    25
100
AcDbLine
 10
9183.8880378759
 20
8837.8112863787
 30
0.0
 11
9183.9880246675
 21
8837.8112863787
 31
0.0
  0
LINE
  5
41D
330
1F
100
AcDbEntity
  8
0
  6
Continuous
 62
     7
 48
50.0
370
    25
100
AcDbLine
 10
8043.9880687749
 20
7546.3226389178
 30
0.0
 11
8043.9880687749
 21
7529.4178079851
 31
0.0
  0
LINE
  5
41E
330
1F
100
AcDbEntity
  8
0
  6
Continuous
 62
     7
 48
50.0
370
    25
100
AcDbLine
 10
8044.0879661596
 20
7546.3226389178
 30
0.0
 11
8043.9880687749
 21
7546.3226389178
 31
0.0
  0
LINE
  5
41F
330
1F
100
AcDbEntity
  8
0
  6
Continuous
 62
     7
 48
50.0
370
    25
100
AcDbLine
 10
9183.9880246675
 20
7546.3226389178
 30
0.0
 11
9183.9880246675
 21
7529.4178079851
 31
0.0
  0
LINE
  5
420
330
1F
100
AcDbEntity
  8
0
  6
Continuous
 62
     7
 48
50.0
370
    25
100
AcDbLine
 10
9183.8880378759
 20
7546.3226389178
 30
0.0
 11
9183.9880246675
 21
7546.3226389178
 31
0.0
  0
LINE
  5
421
330
1F
100
AcDbEntity
  8
0
  6
Continuous
 62
     7
 48
50.0
370
    25
100
AcDbLine
 10
8053.9880592382
 20
7280.4277490862
 30
0.0
 11
9173.9880342042
 21
7280.4277490862
 31
0.0
  0
LINE
  5
422
330
1F
100
AcDbEntity
  8
0
  6
Continuous
 62
     7
 48
50.0
370
    25
100
AcDbLine
 10
9202.9880184686
 20
5187.5188898333
 30
0.0
 11
10342.9880339658
 21
5187.5188898333
 31
0.0
  0
LINE
  5
423
330
1F
100
AcDbEntity
  8
0
  6
Continuous
 62
     7
 48
50.0
370
    25
100
AcDbLine
 10
9202.9880184686
 20
5445.8168100603
 30
0.0
 11
9202.9880184686
 21
5187.5188898333
 31
0.0
  0
LINE
  5
424
330
1F
100
AcDbEntity
  8
0
  6
Continuous
 62
     7
 48
50.0
370
    25
100
AcDbLine
 10
9203.0880350626
 20
5445.8168100603
 30
0.0
 11
9202.9880184686
 21
5445.8168100603
 31
0.0
  0
LINE
  5
425
330
1F
100
AcDbEntity
  8
0
  6
Continuous
 62
     7
 48
50.0
370
    25
100
AcDbLine
 10
9203.0880350626
 20
5445.8168100603
 30
0.0
 11
9203.0880350626
 21
5704.1147302874
 31
0.0
  0
LINE
  5
426
330
1F
100
AcDbEntity
  8
0
  6
Continuous
 62
     7
 48
50.0
370
    25
100
AcDbLine
 10
9203.0880350626
 20
5704.1147302874
 30
0.0
 11
9202.9880184686
 21
5704.1147302874
 31
0.0
  0
LINE
  5
427
330
1F
100
AcDbEntity
  8
0
  6
Continuous
 62
     7
 48
50.0
370
    25
100
AcDbLine
 10
9202.9880184686
 20
6737.3054575213
 30
0.0
 11
9202.9880184686
 21
5704.1147302874
 31
0.0
  0
LINE
  5
428
330
1F
100
AcDbEntity
  8
0
  6
Continuous
 62
     7
 48
50.0
370
    25
100
AcDbLine
 10
9203.0880350626
 20
6737.3054575213
 30
0.0
 11
9202.9880184686
 21
6737.3054575213
 31
0.0
  0
LINE
  5
429
330
1F
100
AcDbEntity
  8
0
  6
Continuous
 62
     7
 48
50.0
370
    25
100
AcDbLine
 10
9203.0880350626
 20
6737.3054575213
 30
0.0
 11
9203.0880350626
 21
6995.6033777483
 31
0.0
  0
LINE
  5
42A
330
1F
100
AcDbEntity
  8
0
  6
Continuous
 62
     7
 48
50.0
370
    25
100
AcDbLine
 10
9203.0880350626
 20
6995.6033777483
 30
0.0
 11
9202.9880184686
 21
6995.6033777483
 31
0.0
  0
LINE
  5
42B
330
1F
100
AcDbEntity
  8
0
  6
Continuous
 62
     7
 48
50.0
370
    25
100
AcDbLine
 10
9202.9880184686
 20
7253.9003443011
 30
0.0
 11
9202.9880184686
 21
6995.6033777483
 31
0.0
  0
LINE
  5
42C
330
1F
100
AcDbEntity
  8
0
  6
Continuous
 62
     7
 48
50.0
370
    25
100
AcDbLine
 10
10342.9880339658
 20
7253.9003443011
 30
0.0
 11
9202.9880184686
 21
7253.9003443011
 31
0.0
  0
LINE
  5
42D
330
1F
100
AcDbEntity
  8
0
  6
Continuous
 62
     7
 48
50.0
370
    25
100
AcDbLine
 10
10342.9880339658
 20
6995.6033777483
 30
0.0
 11
10342.9880339658
 21
7253.9003443011
 31
0.0
  0
LINE
  5
42E
330
1F
100
AcDbEntity
  8
0
  6
Continuous
 62
     7
 48
50.0
370
    25
100
AcDbLine
 10
10342.8880173719
 20
6995.6033777483
 30
0.0
 11
10342.9880339658
 21
6995.6033777483
 31
0.0
  0
LINE
  5
42F
330
1F
100
AcDbEntity
  8
0
  6
Continuous
 62
     7
 48
50.0
370
    25
100
AcDbLine
 10
10342.8880173719
 20
6737.3054575213
 30
0.0
 11
10342.8880173719
 21
6995.6033777483
 31
0.0
  0
LINE
  5
430
330
1F
100
AcDbEntity
  8
0
  6
Continuous
 62
     7
 48
50.0
370
    25
100
AcDbLine
 10
10342.8880173719
 20
6737.3054575213
 30
0.0
 11
10342.9880339658
 21
6737.3054575213
 31
0.0
  0
LINE
  5
431
330
1F
100
AcDbEntity
  8
0
  6
Continuous
 62
     7
 48
50.0
370
    25
100
AcDbLine
 10
10342.9880339658
 20
5704.1147302874
 30
0.0
 11
10342.9880339658
 21
6737.3054575213
 31
0.0
  0
LINE
  5
432
330
1F
100
AcDbEntity
  8
0
  6
Continuous
 62
     7
 48
50.0
370
    25
100
AcDbLine
 10
10342.8880173719
 20
5704.1147302874
 30
0.0
 11
10342.9880339658
 21
5704.1147302874
 31
0.0
  0
LINE
  5
433
330
1F
100
AcDbEntity
  8
0
  6
Continuous
 62
     7
 48
50.0
370
    25
100
AcDbLine
 10
10342.8880173719
 20
5445.8168100603
 30
0.0
 11
10342.8880173719
 21
5704.1147302874
 31
0.0
  0
LINE
  5
434
330
1F
100
AcDbEntity
  8
0
  6
Continuous
 62
     7
 48
50.0
370
    25
100
AcDbLine
 10
10342.8880173719
 20
5445.8168100603
 30
0.0
 11
10342.9880339658
 21
5445.8168100603
 31
0.0
  0
LINE
  5
435
330
1F
100
AcDbEntity
  8
0
  6
Continuous
 62
     7
 48
50.0
370
    25
100
AcDbLine
 10
10342.9880339658
 20
5187.5188898333
 30
0.0
 11
10342.9880339658
 21
5445.8168100603
 31
0.0
  0
LINE
  5
436
330
1F
100
AcDbEntity
  8
0
  6
Continuous
 62
     7
 48
50.0
370
    25
100
AcDbLine
 10
9211.9880218065
 20
7245.7435678728
 30
0.0
 11
10333.988030628
 21
7245.7435678728
 31
0.0
  0
LINE
  5
437
330
1F
100
AcDbEntity
  8
0
  6
Continuous
 62
     7
 48
50.0
370
    25
100
AcDbLine
 10
9211.9880218065
 20
5195.6756662615
 30
0.0
 11
9211.9880218065
 21
7245.7435678728
 31
0.0
  0
LINE
  5
438
330
1F
100
AcDbEntity
  8
0
  6
Continuous
 62
     7
 48
50.0
370
    25
100
AcDbLine
 10
10333.988030628
 20
5195.6756662615
 30
0.0
 11
9211.9880218065
 21
5195.6756662615
 31
0.0
  0
LINE
  5
439
330
1F
100
AcDbEntity
  8
0
  6
Continuous
 62
     7
 48
50.0
370
    25
100
AcDbLine
 10
10333.988030628
 20
7245.7435678728
 30
0.0
 11
10333.988030628
 21
5195.6756662615
 31
0.0
  0
LINE
  5
43A
330
1F
100
AcDbEntity
  8
0
  6
Continuous
 62
     7
 48
50.0
370
    25
100
AcDbLine
 10
10342.9880339658
 20
7270.8051752337
 30
0.0
 11
9202.9880184686
 21
7270.8051752337
 31
0.0
  0
LINE
  5
43B
330
1F
100
AcDbEntity
  8
0
  6
Continuous
 62
     7
 48
50.0
370
    25
100
AcDbLine
 10
10342.9880339658
 20
7270.8051752337
 30
0.0
 11
10342.9880339658
 21
7253.9003443011
 31
0.0
  0
LINE
  5
43C
330
1F
100
AcDbEntity
  8
0
  6
Continuous
 62
     7
 48
50.0
370
    25
100
AcDbLine
 10
9202.9880184686
 20
7270.8051752337
 30
0.0
 11
9202.9880184686
 21
7253.9003443011
 31
0.0
  0
LINE
  5
43D
330
1F
100
AcDbEntity
  8
0
  6
Continuous
 62
     7
 48
50.0
370
    25
100
AcDbLine
 10
10333.988030628
 20
5195.6756662615
 30
0.0
 11
10332.9880435026
 21
5196.8257974871
 31
0.0
  0
LINE
  5
43E
330
1F
100
AcDbEntity
  8
0
  6
Continuous
 62
     7
 48
50.0
370
    25
100
AcDbLine
 10
10332.9880435026
 20
5196.8257974871
 30
0.0
 11
10332.9880435026
 21
7245.0817178973
 31
0.0
  0
LINE
  5
43F
330
1F
100
AcDbEntity
  8
0
  6
Continuous
 62
     7
 48
50.0
370
    25
100
AcDbLine
 10
10333.988030628
 20
7245.7435678728
 30
0.0
 11
10332.9880435026
 21
7245.0817178973
 31
0.0
  0
LINE
  5
440
330
1F
100
AcDbEntity
  8
0
  6
Continuous
 62
     7
 48
50.0
370
    25
100
AcDbLine
 10
10332.9880435026
 20
7245.0817178973
 30
0.0
 11
9212.9880387342
 21
7245.0817178973
 31
0.0
  0
LINE
  5
441
330
1F
100
AcDbEntity
  8
0
  6
Continuous
 62
     7
 48
50.0
370
    25
100
AcDbLine
 10
9212.9880387342
 20
7245.0817178973
 30
0.0
 11
9211.9880218065
 21
7245.7435678728
 31
0.0
  0
LINE
  5
442
330
1F
100
AcDbEntity
  8
0
  6
Continuous
 62
     7
 48
50.0
370
    25
100
AcDbLine
 10
9212.9880387342
 20
7245.0817178973
 30
0.0
 11
9212.9880387342
 21
5196.8257974871
 31
0.0
  0
LINE
  5
443
330
1F
100
AcDbEntity
  8
0
  6
Continuous
 62
     7
 48
50.0
370
    25
100
AcDbLine
 10
9212.9880387342
 20
5196.8257974871
 30
0.0
 11
9211.9880218065
 21
5195.6756662615
 31
0.0
  0
LINE
  5
444
330
1F
100
AcDbEntity
  8
0
  6
Continuous
 62
     7
 48
50.0
370
    25
100
AcDbLine
 10
9212.9880387342
 20
5197.2158502825
 30
0.0
 11
10332.9880435026
 21
5197.2158502825
 31
0.0
  0
LINE
  5
445
330
1F
100
AcDbEntity
  8
0
  6
Continuous
 62
     7
 48
50.0
370
    25
100
AcDbLine
 10
9202.9880184686
 20
6754.2102884539
 30
0.0
 11
9202.9880184686
 21
6737.3054575213
 31
0.0
  0
LINE
  5
446
330
1F
100
AcDbEntity
  8
0
  6
Continuous
 62
     7
 48
50.0
370
    25
100
AcDbLine
 10
9203.0880350626
 20
6754.2102884539
 30
0.0
 11
9202.9880184686
 21
6754.2102884539
 31
0.0
  0
LINE
  5
447
330
1F
100
AcDbEntity
  8
0
  6
Continuous
 62
     7
 48
50.0
370
    25
100
AcDbLine
 10
10342.9880339658
 20
6754.2102884539
 30
0.0
 11
10342.9880339658
 21
6737.3054575213
 31
0.0
  0
LINE
  5
448
330
1F
100
AcDbEntity
  8
0
  6
Continuous
 62
     7
 48
50.0
370
    25
100
AcDbLine
 10
10342.8880173719
 20
6754.2102884539
 30
0.0
 11
10342.9880339658
 21
6754.2102884539
 31
0.0
  0
LINE
  5
449
330
1F
100
AcDbEntity
  8
0
  6
Continuous
 62
     7
 48
50.0
370
    25
100
AcDbLine
 10
9202.9880184686
 20
5462.721640993
 30
0.0
 11
9202.9880184686
 21
5445.8168100603
 31
0.0
  0
LINE
  5
44A
330
1F
100
AcDbEntity
  8
0
  6
Continuous
 62
     7
 48
50.0
370
    25
100
AcDbLine
 10
9203.0880350626
 20
5462.721640993
 30
0.0
 11
9202.9880184686
 21
5462.721640993
 31
0.0
  0
LINE
  5
44B
330
1F
100
AcDbEntity
  8
0
  6
Continuous
 62
     7
 48
50.0
370
    25
100
AcDbLine
 10
10342.9880339658
 20
5462.721640993
 30
0.0
 11
10342.9880339658
 21
5445.8168100603
 31
0.0
  0
LINE
  5
44C
330
1F
100
AcDbEntity
  8
0
  6
Continuous
 62
     7
 48
50.0
370
    25
100
AcDbLine
 10
10342.8880173719
 20
5462.721640993
 30
0.0
 11
10342.9880339658
 21
5462.721640993
 31
0.0
  0
LINE
  5
44D
330
1F
100
AcDbEntity
  8
0
  6
Continuous
 62
     7
 48
50.0
370
    25
100
AcDbLine
 10
9212.9880387342
 20
5196.8257974871
 30
0.0
 11
10332.9880435026
 21
5196.8257974871
 31
0.0
  0
LINE
  5
44E
330
1F
100
AcDbEntity
  8
0
  6
Continuous
 62
     7
 48
50.0
370
    25
100
AcDbLine
 10
8043.9880687749
 20
5187.5188898333
 30
0.0
 11
9183.9880246675
 21
5187.5188898333
 31
0.0
  0
LINE
  5
44F
330
1F
100
AcDbEntity
  8
0
  6
Continuous
 62
     7
 48
50.0
370
    25
100
AcDbLine
 10
8043.9880687749
 20
5445.8168100603
 30
0.0
 11
8043.9880687749
 21
5187.5188898333
 31
0.0
  0
LINE
  5
450
330
1F
100
AcDbEntity
  8
0
  6
Continuous
 62
     7
 48
50.0
370
    25
100
AcDbLine
 10
8044.0879661596
 20
5445.8168100603
 30
0.0
 11
8043.9880687749
 21
5445.8168100603
 31
0.0
  0
LINE
  5
451
330
1F
100
AcDbEntity
  8
0
  6
Continuous
 62
     7
 48
50.0
370
    25
100
AcDbLine
 10
8044.0879661596
 20
5445.8168100603
 30
0.0
 11
8044.0879661596
 21
5704.1147302874
 31
0.0
  0
LINE
  5
452
330
1F
100
AcDbEntity
  8
0
  6
Continuous
 62
     7
 48
50.0
370
    25
100
AcDbLine
 10
8044.0879661596
 20
5704.1147302874
 30
0.0
 11
8043.9880687749
 21
5704.1147302874
 31
0.0
  0
LINE
  5
453
330
1F
100
AcDbEntity
  8
0
  6
Continuous
 62
     7
 48
50.0
370
    25
100
AcDbLine
 10
8043.9880687749
 20
6737.3054575213
 30
0.0
 11
8043.9880687749
 21
5704.1147302874
 31
0.0
  0
LINE
  5
454
330
1F
100
AcDbEntity
  8
0
  6
Continuous
 62
     7
 48
50.0
370
    25
100
AcDbLine
 10
8044.0879661596
 20
6737.3054575213
 30
0.0
 11
8043.9880687749
 21
6737.3054575213
 31
0.0
  0
LINE
  5
455
330
1F
100
AcDbEntity
  8
0
  6
Continuous
 62
     7
 48
50.0
370
    25
100
AcDbLine
 10
8044.0879661596
 20
6737.3054575213
 30
0.0
 11
8044.0879661596
 21
6995.6033777483
 31
0.0
  0
LINE
  5
456
330
1F
100
AcDbEntity
  8
0
  6
Continuous
 62
     7
 48
50.0
370
    25
100
AcDbLine
 10
8044.0879661596
 20
6995.6033777483
 30
0.0
 11
8043.9880687749
 21
6995.6033777483
 31
0.0
  0
LINE
  5
457
330
1F
100
AcDbEntity
  8
0
  6
Continuous
 62
     7
 48
50.0
370
    25
100
AcDbLine
 10
8043.9880687749
 20
7253.9003443011
 30
0.0
 11
8043.9880687749
 21
6995.6033777483
 31
0.0
  0
LINE
  5
458
330
1F
100
AcDbEntity
  8
0
  6
Continuous
 62
     7
 48
50.0
370
    25
100
AcDbLine
 10
9183.9880246675
 20
7253.9003443011
 30
0.0
 11
8043.9880687749
 21
7253.9003443011
 31
0.0
  0
LINE
  5
459
330
1F
100
AcDbEntity
  8
0
  6
Continuous
 62
     7
 48
50.0
370
    25
100
AcDbLine
 10
9183.9880246675
 20
6995.6033777483
 30
0.0
 11
9183.9880246675
 21
7253.9003443011
 31
0.0
  0
LINE
  5
45A
330
1F
100
AcDbEntity
  8
0
  6
Continuous
 62
     7
 48
50.0
370
    25
100
AcDbLine
 10
9183.8880378759
 20
6995.6033777483
 30
0.0
 11
9183.9880246675
 21
6995.6033777483
 31
0.0
  0
LINE
  5
45B
330
1F
100
AcDbEntity
  8
0
  6
Continuous
 62
     7
 48
50.0
370
    25
100
AcDbLine
 10
9183.8880378759
 20
6737.3054575213
 30
0.0
 11
9183.8880378759
 21
6995.6033777483
 31
0.0
  0
LINE
  5
45C
330
1F
100
AcDbEntity
  8
0
  6
Continuous
 62
     7
 48
50.0
370
    25
100
AcDbLine
 10
9183.8880378759
 20
6737.3054575213
 30
0.0
 11
9183.9880246675
 21
6737.3054575213
 31
0.0
  0
LINE
  5
45D
330
1F
100
AcDbEntity
  8
0
  6
Continuous
 62
     7
 48
50.0
370
    25
100
AcDbLine
 10
9183.9880246675
 20
5704.1147302874
 30
0.0
 11
9183.9880246675
 21
6737.3054575213
 31
0.0
  0
LINE
  5
45E
330
1F
100
AcDbEntity
  8
0
  6
Continuous
 62
     7
 48
50.0
370
    25
100
AcDbLine
 10
9183.8880378759
 20
5704.1147302874
 30
0.0
 11
9183.9880246675
 21
5704.1147302874
 31
0.0
  0
LINE
  5
45F
330
1F
100
AcDbEntity
  8
0
  6
Continuous
 62
     7
 48
50.0
370
    25
100
AcDbLine
 10
9183.8880378759
 20
5445.8168100603
 30
0.0
 11
9183.8880378759
 21
5704.1147302874
 31
0.0
  0
LINE
  5
460
330
1F
100
AcDbEntity
  8
0
  6
Continuous
 62
     7
 48
50.0
370
    25
100
AcDbLine
 10
9183.8880378759
 20
5445.8168100603
 30
0.0
 11
9183.9880246675
 21
5445.8168100603
 31
0.0
  0
LINE
  5
461
330
1F
100
AcDbEntity
  8
0
  6
Continuous
 62
     7
 48
50.0
370
    25
100
AcDbLine
 10
9183.9880246675
 20
5187.5188898333
 30
0.0
 11
9183.9880246675
 21
5445.8168100603
 31
0.0
  0
LINE
  5
462
330
1F
100
AcDbEntity
  8
0
  6
Continuous
 62
     7
 48
50.0
370
    25
100
AcDbLine
 10
8052.9880125082
 20
7245.7435678728
 30
0.0
 11
9174.9880213296
 21
7245.7435678728
 31
0.0
  0
LINE
  5
463
330
1F
100
AcDbEntity
  8
0
  6
Continuous
 62
     7
 48
50.0
370
    25
100
AcDbLine
 10
8052.9880125082
 20
5195.6756662615
 30
0.0
 11
8052.9880125082
 21
7245.7435678728
 31
0.0
  0
LINE
  5
464
330
1F
100
AcDbEntity
  8
0
  6
Continuous
 62
     7
 48
50.0
370
    25
100
AcDbLine
 10
9174.9880213296
 20
5195.6756662615
 30
0.0
 11
8052.9880125082
 21
5195.6756662615
 31
0.0
  0
LINE
  5
465
330
1F
100
AcDbEntity
  8
0
  6
Continuous
 62
     7
 48
50.0
370
    25
100
AcDbLine
 10
9174.9880213296
 20
7245.7435678728
 30
0.0
 11
9174.9880213296
 21
5195.6756662615
 31
0.0
  0
LINE
  5
466
330
1F
100
AcDbEntity
  8
0
  6
Continuous
 62
     7
 48
50.0
370
    25
100
AcDbLine
 10
9183.9880246675
 20
7270.8051752337
 30
0.0
 11
8043.9880687749
 21
7270.8051752337
 31
0.0
  0
LINE
  5
467
330
1F
100
AcDbEntity
  8
0
  6
Continuous
 62
     7
 48
50.0
370
    25
100
AcDbLine
 10
9183.9880246675
 20
7270.8051752337
 30
0.0
 11
9183.9880246675
 21
7253.9003443011
 31
0.0
  0
LINE
  5
468
330
1F
100
AcDbEntity
  8
0
  6
Continuous
 62
     7
 48
50.0
370
    25
100
AcDbLine
 10
8043.9880687749
 20
7270.8051752337
 30
0.0
 11
8043.9880687749
 21
7253.9003443011
 31
0.0
  0
LINE
  5
469
330
1F
100
AcDbEntity
  8
0
  6
Continuous
 62
     7
 48
50.0
370
    25
100
AcDbLine
 10
9174.9880213296
 20
5195.6756662615
 30
0.0
 11
9173.9880342042
 21
5196.8257974871
 31
0.0
  0
LINE
  5
46A
330
1F
100
AcDbEntity
  8
0
  6
Continuous
 62
     7
 48
50.0
370
    25
100
AcDbLine
 10
9173.9880342042
 20
5196.8257974871
 30
0.0
 11
9173.9880342042
 21
7245.0817178973
 31
0.0
  0
LINE
  5
46B
330
1F
100
AcDbEntity
  8
0
  6
Continuous
 62
     7
 48
50.0
370
    25
100
AcDbLine
 10
9174.9880213296
 20
7245.7435678728
 30
0.0
 11
9173.9880342042
 21
7245.0817178973
 31
0.0
  0
LINE
  5
46C
330
1F
100
AcDbEntity
  8
0
  6
Continuous
 62
     7
 48
50.0
370
    25
100
AcDbLine
 10
9173.9880342042
 20
7245.0817178973
 30
0.0
 11
8053.9880592382
 21
7245.0817178973
 31
0.0
  0
LINE
  5
46D
330
1F
100
AcDbEntity
  8
0
  6
Continuous
 62
     7
 48
50.0
370
    25
100
AcDbLine
 10
8053.9880592382
 20
7245.0817178973
 30
0.0
 11
8052.9880125082
 21
7245.7435678728
 31
0.0
  0
LINE
  5
46E
330
1F
100
AcDbEntity
  8
0
  6
Continuous
 62
     7
 48
50.0
370
    25
100
AcDbLine
 10
8053.9880592382
 20
7245.0817178973
 30
0.0
 11
8053.9880592382
 21
5196.8257974871
 31
0.0
  0
LINE
  5
46F
330
1F
100
AcDbEntity
  8
0
  6
Continuous
 62
     7
 48
50.0
370
    25
100
AcDbLine
 10
8053.9880592382
 20
5196.8257974871
 30
0.0
 11
8052.9880125082
 21
5195.6756662615
 31
0.0
  0
LINE
  5
470
330
1F
100
AcDbEntity
  8
0
  6
Continuous
 62
     7
 48
50.0
370
    25
100
AcDbLine
 10
8053.9880592382
 20
5197.2158502825
 30
0.0
 11
9173.9880342042
 21
5197.2158502825
 31
0.0
  0
LINE
  5
471
330
1F
100
AcDbEntity
  8
0
  6
Continuous
 62
     7
 48
50.0
370
    25
100
AcDbLine
 10
8043.9880687749
 20
6754.2102884539
 30
0.0
 11
8043.9880687749
 21
6737.3054575213
 31
0.0
  0
LINE
  5
472
330
1F
100
AcDbEntity
  8
0
  6
Continuous
 62
     7
 48
50.0
370
    25
100
AcDbLine
 10
8044.0879661596
 20
6754.2102884539
 30
0.0
 11
8043.9880687749
 21
6754.2102884539
 31
0.0
  0
LINE
  5
473
330
1F
100
AcDbEntity
  8
0
  6
Continuous
 62
     7
 48
50.0
370
    25
100
AcDbLine
 10
9183.9880246675
 20
6754.2102884539
 30
0.0
 11
9183.9880246675
 21
6737.3054575213
 31
0.0
  0
LINE
  5
474
330
1F
100
AcDbEntity
  8
0
  6
Continuous
 62
     7
 48
50.0
370
    25
100
AcDbLine
 10
9183.8880378759
 20
6754.2102884539
 30
0.0
 11
9183.9880246675
 21
6754.2102884539
 31
0.0
  0
LINE
  5
475
330
1F
100
AcDbEntity
  8
0
  6
Continuous
 62
     7
 48
50.0
370
    25
100
AcDbLine
 10
8043.9880687749
 20
5462.721640993
 30
0.0
 11
8043.9880687749
 21
5445.8168100603
 31
0.0
  0
LINE
  5
476
330
1F
100
AcDbEntity
  8
0
  6
Continuous
 62
     7
 48
50.0
370
    25
100
AcDbLine
 10
8044.0879661596
 20
5462.721640993
 30
0.0
 11
8043.9880687749
 21
5462.721640993
 31
0.0
  0
LINE
  5
477
330
1F
100
AcDbEntity
  8
0
  6
Continuous
 62
     7
 48
50.0
370
    25
100
AcDbLine
 10
9183.9880246675
 20
5462.721640993
 30
0.0
 11
9183.9880246675
 21
5445.8168100603
 31
0.0
  0
LINE
  5
478
330
1F
100
AcDbEntity
  8
0
  6
Continuous
 62
     7
 48
50.0
370
    25
100
AcDbLine
 10
9183.8880378759
 20
5462.721640993
 30
0.0
 11
9183.9880246675
 21
5462.721640993
 31
0.0
  0
LINE
  5
479
330
1F
100
AcDbEntity
  8
0
  6
Continuous
 62
     7
 48
50.0
370
    25
100
AcDbLine
 10
8053.9880592382
 20
5196.8257974871
 30
0.0
 11
9173.9880342042
 21
5196.8257974871
 31
0.0
  0
LINE
  5
47A
330
1F
100
AcDbEntity
  8
0
  6
Continuous
 62
     7
 48
50.0
370
    25
100
AcDbLine
 10
8008.4880191839
 20
7605.806167055
 30
0.0
 11
8008.4880191839
 21
7601.1541437395
 31
0.0
  0
LINE
  5
47B
330
1F
100
AcDbEntity
  8
0
  6
Continuous
 62
     7
 48
50.0
370
    25
100
AcDbLine
 10
10378.4880239523
 20
7605.806167055
 30
0.0
 11
10378.4880239523
 21
7601.1541437395
 31
0.0
  0
LINE
  5
47C
330
1F
100
AcDbEntity
  8
0
  6
Continuous
 62
     7
 48
50.0
370
    25
100
AcDbLine
 10
8008.4880191839
 20
7601.1541437395
 30
0.0
 11
8008.4880191839
 21
7562.1831964739
 31
0.0
  0
LINE
  5
47D
330
1F
100
AcDbEntity
  8
0
  6
Continuous
 62
     7
 48
50.0
370
    25
100
AcDbLine
 10
10378.4880239523
 20
7601.1541437395
 30
0.0
 11
10378.4880239523
 21
7562.1831964739
 31
0.0
  0
LINE
  5
47E
330
1F
100
AcDbEntity
  8
0
  6
Continuous
 62
     7
 48
50.0
370
    25
100
AcDbLine
 10
9203.0880350626
 20
7587.5595163592
 30
0.0
 11
9183.8880378759
 21
7587.5595163592
 31
0.0
  0
LINE
  5
47F
330
1F
100
AcDbEntity
  8
0
  6
Continuous
 62
     7
 48
50.0
370
    25
100
AcDbLine
 10
9183.8880378759
 20
7575.7778238543
 30
0.0
 11
9203.0880350626
 21
7575.7778238543
 31
0.0
  0
LINE
  5
480
330
1F
100
AcDbEntity
  8
0
  6
Continuous
 62
     7
 48
50.0
370
    25
100
AcDbLine
 10
8008.4880191839
 20
7612.7794336565
 30
0.0
 11
8008.4880191839
 21
7605.806167055
 31
0.0
  0
LINE
  5
481
330
1F
100
AcDbEntity
  8
0
  6
Continuous
 62
     7
 48
50.0
370
    25
100
AcDbLine
 10
8008.4880191839
 20
7612.7794336565
 30
0.0
 11
8044.0879661596
 21
7612.7794336565
 31
0.0
  0
LINE
  5
482
330
1F
100
AcDbEntity
  8
0
  6
Continuous
 62
     7
 48
50.0
370
    25
100
AcDbLine
 10
9183.8880378759
 20
7612.7794336565
 30
0.0
 11
9203.0880350626
 21
7612.7794336565
 31
0.0
  0
LINE
  5
483
330
1F
100
AcDbEntity
  8
0
  6
Continuous
 62
     7
 48
50.0
370
    25
100
AcDbLine
 10
10342.8880173719
 20
7612.7794336565
 30
0.0
 11
10378.4880239523
 21
7612.7794336565
 31
0.0
  0
LINE
  5
484
330
1F
100
AcDbEntity
  8
0
  6
Continuous
 62
     7
 48
50.0
370
    25
100
AcDbLine
 10
10378.4880239523
 20
7612.7794336565
 30
0.0
 11
10378.4880239523
 21
7605.806167055
 31
0.0
  0
LINE
  5
485
330
1F
100
AcDbEntity
  8
0
  6
Continuous
 62
     7
 48
50.0
370
    25
100
AcDbLine
 10
9183.8880378759
 20
7576.4120172747
 30
0.0
 11
9203.0880350626
 21
7576.4120172747
 31
0.0
  0
LINE
  5
486
330
1F
100
AcDbEntity
  8
0
  6
Continuous
 62
     7
 48
50.0
370
    25
100
AcDbLine
 10
8008.4880191839
 20
7560.1623605975
 30
0.0
 11
8008.4880191839
 21
7562.1831964739
 31
0.0
  0
LINE
  5
487
330
1F
100
AcDbEntity
  8
0
  6
Continuous
 62
     7
 48
50.0
370
    25
100
AcDbLine
 10
10378.4880239523
 20
7562.1831964739
 30
0.0
 11
10378.4880239523
 21
7560.1623605975
 31
0.0
  0
LINE
  5
488
330
1F
100
AcDbEntity
  8
0
  6
Continuous
 62
     7
 48
50.0
370
    25
100
AcDbLine
 10
8008.4880191839
 20
7636.7767404803
 30
0.0
 11
8044.0879661596
 21
7636.7767404803
 31
0.0
  0
LINE
  5
489
330
1F
100
AcDbEntity
  8
0
  6
Continuous
 62
     7
 48
50.0
370
    25
100
AcDbLine
 10
9183.8880378759
 20
7636.7767404803
 30
0.0
 11
9203.0880350626
 21
7636.7767404803
 31
0.0
  0
LINE
  5
48A
330
1F
100
AcDbEntity
  8
0
  6
Continuous
 62
     7
 48
50.0
370
    25
100
AcDbLine
 10
10342.8880173719
 20
7636.7767404803
 30
0.0
 11
10378.4880239523
 21
7636.7767404803
 31
0.0
  0
LINE
  5
48B
330
1F
100
AcDbEntity
  8
0
  6
Continuous
 62
     7
 48
50.0
370
    25
100
AcDbLine
 10
8008.4880191839
 20
7636.7767404803
 30
0.0
 11
8008.4880191839
 21
7638.1357263811
 31
0.0
  0
LINE
  5
48C
330
1F
100
AcDbEntity
  8
0
  6
Continuous
 62
     7
 48
50.0
370
    25
100
AcDbLine
 10
8008.4880191839
 20
7638.1357263811
 30
0.0
 11
8044.0879661596
 21
7638.1357263811
 31
0.0
  0
LINE
  5
48D
330
1F
100
AcDbEntity
  8
0
  6
Continuous
 62
     7
 48
50.0
370
    25
100
AcDbLine
 10
9183.8880378759
 20
7638.1357263811
 30
0.0
 11
9203.0880350626
 21
7638.1357263811
 31
0.0
  0
LINE
  5
48E
330
1F
100
AcDbEntity
  8
0
  6
Continuous
 62
     7
 48
50.0
370
    25
100
AcDbLine
 10
10342.8880173719
 20
7638.1357263811
 30
0.0
 11
10378.4880239523
 21
7638.1357263811
 31
0.0
  0
LINE
  5
48F
330
1F
100
AcDbEntity
  8
0
  6
Continuous
 62
     7
 48
50.0
370
    25
100
AcDbLine
 10
10378.4880239523
 20
7636.7767404803
 30
0.0
 11
10378.4880239523
 21
7638.1357263811
 31
0.0
  0
LINE
  5
490
330
1F
100
AcDbEntity
  8
0
  6
Continuous
 62
     7
 48
50.0
370
    25
100
AcDbLine
 10
8008.4880191839
 20
7645.1089929827
 30
0.0
 11
8008.4880191839
 21
7638.1357263811
 31
0.0
  0
LINE
  5
491
330
1F
100
AcDbEntity
  8
0
  6
Continuous
 62
     7
 48
50.0
370
    25
100
AcDbLine
 10
10378.4880239523
 20
7645.1089929827
 30
0.0
 11
10378.4880239523
 21
7638.1357263811
 31
0.0
  0
LINE
  5
492
330
1F
100
AcDbEntity
  8
0
  6
Continuous
 62
     7
 48
50.0
370
    25
100
AcDbLine
 10
8008.4880191839
 20
7645.4370569476
 30
0.0
 11
8008.4880191839
 21
7645.1089929827
 31
0.0
  0
LINE
  5
493
330
1F
100
AcDbEntity
  8
0
  6
Continuous
 62
     7
 48
50.0
370
    25
100
AcDbLine
 10
10378.4880239523
 20
7645.4370569476
 30
0.0
 11
10378.4880239523
 21
7645.1089929827
 31
0.0
  0
LINE
  5
494
330
1F
100
AcDbEntity
  8
0
  6
Continuous
 62
     7
 48
50.0
370
    25
100
AcDbLine
 10
8008.4880191839
 20
7612.7794336565
 30
0.0
 11
8008.4880191839
 21
7636.7767404803
 31
0.0
  0
LINE
  5
495
330
1F
100
AcDbEntity
  8
0
  6
Continuous
 62
     7
 48
50.0
370
    25
100
AcDbLine
 10
10378.4880239523
 20
7612.7794336565
 30
0.0
 11
10378.4880239523
 21
7636.7767404803
 31
0.0
  0
LINE
  5
496
330
1F
100
AcDbEntity
  8
0
  6
Continuous
 62
     7
 48
50.0
370
    25
100
AcDbLine
 10
9203.0880350626
 20
7617.4057077654
 30
0.0
 11
9183.8880378759
 21
7617.4057077654
 31
0.0
  0
LINE
  5
497
330
1F
100
AcDbEntity
  8
0
  6
Continuous
 62
     7
 48
50.0
370
    25
100
AcDbLine
 10
9183.8880378759
 20
7629.1874002703
 30
0.0
 11
9203.0880350626
 21
7629.1874002703
 31
0.0
  0
LINE
  5
498
330
1F
100
AcDbEntity
  8
0
  6
Continuous
 62
     7
 48
50.0
370
    25
100
AcDbLine
 10
9203.0880350626
 20
7618.0399011858
 30
0.0
 11
9183.8880378759
 21
7618.0399011858
 31
0.0
  0
LINE
  5
499
330
1F
100
AcDbEntity
  8
0
  6
Continuous
 62
     7
 48
50.0
370
    25
100
AcDbLine
 10
8008.4880191839
 20
5685.3397440203
 30
0.0
 11
8008.4880191839
 21
5680.6886743792
 31
0.0
  0
LINE
  5
49A
330
1F
100
AcDbEntity
  8
0
  6
Continuous
 62
     7
 48
50.0
370
    25
100
AcDbLine
 10
10378.4880239523
 20
5685.3397440203
 30
0.0
 11
10378.4880239523
 21
5680.6886743792
 31
0.0
  0
LINE
  5
49B
330
1F
100
AcDbEntity
  8
0
  6
Continuous
 62
     7
 48
50.0
370
    25
100
AcDbLine
 10
8008.4880191839
 20
5680.6886743792
 30
0.0
 11
8008.4880191839
 21
5641.7167734393
 31
0.0
  0
LINE
  5
49C
330
1F
100
AcDbEntity
  8
0
  6
Continuous
 62
     7
 48
50.0
370
    25
100
AcDbLine
 10
10378.4880239523
 20
5680.6886743792
 30
0.0
 11
10378.4880239523
 21
5641.7167734393
 31
0.0
  0
LINE
  5
49D
330
1F
100
AcDbEntity
  8
0
  6
Continuous
 62
     7
 48
50.0
370
    25
100
AcDbLine
 10
9203.0880350626
 20
5667.0940469988
 30
0.0
 11
9183.8880378759
 21
5667.0940469988
 31
0.0
  0
LINE
  5
49E
330
1F
100
AcDbEntity
  8
0
  6
Continuous
 62
     7
 48
50.0
370
    25
100
AcDbLine
 10
9183.8880378759
 20
5655.3114008196
 30
0.0
 11
9203.0880350626
 21
5655.3114008196
 31
0.0
  0
LINE
  5
49F
330
1F
100
AcDbEntity
  8
0
  6
Continuous
 62
     7
 48
50.0
370
    25
100
AcDbLine
 10
8008.4880191839
 20
5692.3130106219
 30
0.0
 11
8008.4880191839
 21
5685.3397440203
 31
0.0
  0
LINE
  5
4A0
330
1F
100
AcDbEntity
  8
0
  6
Continuous
 62
     7
 48
50.0
370
    25
100
AcDbLine
 10
8008.4880191839
 20
5692.3130106219
 30
0.0
 11
8044.0879661596
 21
5692.3130106219
 31
0.0
  0
LINE
  5
4A1
330
1F
100
AcDbEntity
  8
0
  6
Continuous
 62
     7
 48
50.0
370
    25
100
AcDbLine
 10
9183.8880378759
 20
5692.3130106219
 30
0.0
 11
9203.0880350626
 21
5692.3130106219
 31
0.0
  0
LINE
  5
4A2
330
1F
100
AcDbEntity
  8
0
  6
Continuous
 62
     7
 48
50.0
370
    25
100
AcDbLine
 10
10342.8880173719
 20
5692.3130106219
 30
0.0
 11
10378.4880239523
 21
5692.3130106219
 31
0.0
  0
LINE
  5
4A3
330
1F
100
AcDbEntity
  8
0
  6
Continuous
 62
     7
 48
50.0
370
    25
100
AcDbLine
 10
10378.4880239523
 20
5692.3130106219
 30
0.0
 11
10378.4880239523
 21
5685.3397440203
 31
0.0
  0
LINE
  5
4A4
330
1F
100
AcDbEntity
  8
0
  6
Continuous
 62
     7
 48
50.0
370
    25
100
AcDbLine
 10
9183.8880378759
 20
5655.94559424
 30
0.0
 11
9203.0880350626
 21
5655.94559424
 31
0.0
  0
LINE
  5
4A5
330
1F
100
AcDbEntity
  8
0
  6
Continuous
 62
     7
 48
50.0
370
    25
100
AcDbLine
 10
8008.4880191839
 20
5639.6959375628
 30
0.0
 11
8008.4880191839
 21
5641.7167734393
 31
0.0
  0
LINE
  5
4A6
330
1F
100
AcDbEntity
  8
0
  6
Continuous
 62
     7
 48
50.0
370
    25
100
AcDbLine
 10
10378.4880239523
 20
5641.7167734393
 30
0.0
 11
10378.4880239523
 21
5639.6959375628
 31
0.0
  0
LINE
  5
4A7
330
1F
100
AcDbEntity
  8
0
  6
Continuous
 62
     7
 48
50.0
370
    25
100
AcDbLine
 10
8008.4880191839
 20
5717.6702570208
 30
0.0
 11
8043.9880687749
 21
5717.6702570208
 31
0.0
  0
LINE
  5
4A8
330
1F
100
AcDbEntity
  8
0
  6
Continuous
 62
     7
 48
50.0
370
    25
100
AcDbLine
 10
9183.9880246675
 20
5717.6702570208
 30
0.0
 11
9202.9880184686
 21
5717.6702570208
 31
0.0
  0
LINE
  5
4A9
330
1F
100
AcDbEntity
  8
0
  6
Continuous
 62
     7
 48
50.0
370
    25
100
AcDbLine
 10
10342.9880339658
 20
5717.6702570208
 30
0.0
 11
10378.4880239523
 21
5717.6702570208
 31
0.0
  0
LINE
  5
4AA
330
1F
100
AcDbEntity
  8
0
  6
Continuous
 62
     7
 48
50.0
370
    25
100
AcDbLine
 10
8008.4880191839
 20
5724.6435236224
 30
0.0
 11
8008.4880191839
 21
5717.6702570208
 31
0.0
  0
LINE
  5
4AB
330
1F
100
AcDbEntity
  8
0
  6
Continuous
 62
     7
 48
50.0
370
    25
100
AcDbLine
 10
10378.4880239523
 20
5724.6435236224
 30
0.0
 11
10378.4880239523
 21
5717.6702570208
 31
0.0
  0
LINE
  5
4AC
330
1F
100
AcDbEntity
  8
0
  6
Continuous
 62
     7
 48
50.0
370
    25
100
AcDbLine
 10
8008.4880191839
 20
5716.3103174456
 30
0.0
 11
8043.9880687749
 21
5716.3103174456
 31
0.0
  0
LINE
  5
4AD
330
1F
100
AcDbEntity
  8
0
  6
Continuous
 62
     7
 48
50.0
370
    25
100
AcDbLine
 10
9183.9880246675
 20
5716.3103174456
 30
0.0
 11
9202.9880184686
 21
5716.3103174456
 31
0.0
  0
LINE
  5
4AE
330
1F
100
AcDbEntity
  8
0
  6
Continuous
 62
     7
 48
50.0
370
    25
100
AcDbLine
 10
10342.9880339658
 20
5716.3103174456
 30
0.0
 11
10378.4880239523
 21
5716.3103174456
 31
0.0
  0
LINE
  5
4AF
330
1F
100
AcDbEntity
  8
0
  6
Continuous
 62
     7
 48
50.0
370
    25
100
AcDbLine
 10
8008.4880191839
 20
5716.3103174456
 30
0.0
 11
8008.4880191839
 21
5717.6702570208
 31
0.0
  0
LINE
  5
4B0
330
1F
100
AcDbEntity
  8
0
  6
Continuous
 62
     7
 48
50.0
370
    25
100
AcDbLine
 10
10378.4880239523
 20
5716.3103174456
 30
0.0
 11
10378.4880239523
 21
5717.6702570208
 31
0.0
  0
LINE
  5
4B1
330
1F
100
AcDbEntity
  8
0
  6
Continuous
 62
     7
 48
50.0
370
    25
100
AcDbLine
 10
8008.4880191839
 20
5724.9706339129
 30
0.0
 11
8008.4880191839
 21
5724.6435236224
 31
0.0
  0
LINE
  5
4B2
330
1F
100
AcDbEntity
  8
0
  6
Continuous
 62
     7
 48
50.0
370
    25
100
AcDbLine
 10
10378.4880239523
 20
5724.9706339129
 30
0.0
 11
10378.4880239523
 21
5724.6435236224
 31
0.0
  0
LINE
  5
4B3
330
1F
100
AcDbEntity
  8
0
  6
Continuous
 62
     7
 48
50.0
370
    25
100
AcDbLine
 10
8008.4880191839
 20
5692.3130106219
 30
0.0
 11
8008.4880191839
 21
5716.3103174456
 31
0.0
  0
LINE
  5
4B4
330
1F
100
AcDbEntity
  8
0
  6
Continuous
 62
     7
 48
50.0
370
    25
100
AcDbLine
 10
10378.4880239523
 20
5692.3130106219
 30
0.0
 11
10378.4880239523
 21
5716.3103174456
 31
0.0
  0
LINE
  5
4B5
330
1F
100
AcDbEntity
  8
0
  6
Continuous
 62
     7
 48
50.0
370
    25
100
AcDbLine
 10
9203.0880350626
 20
5696.9392847308
 30
0.0
 11
9183.8880378759
 21
5696.9392847308
 31
0.0
  0
LINE
  5
4B6
330
1F
100
AcDbEntity
  8
0
  6
Continuous
 62
     7
 48
50.0
370
    25
100
AcDbLine
 10
9183.9880246675
 20
5708.72193091
 30
0.0
 11
9202.9880184686
 21
5708.72193091
 31
0.0
  0
LINE
  5
4B7
330
1F
100
AcDbEntity
  8
0
  6
Continuous
 62
     7
 48
50.0
370
    25
100
AcDbLine
 10
9203.0880350626
 20
5697.5734781512
 30
0.0
 11
9183.8880378759
 21
5697.5734781512
 31
0.0
  0
LINE
  5
4B8
330
1F
100
AcDbEntity
  8
0
  6
Continuous
 62
     7
 48
50.0
370
    25
100
AcDbLine
 10
8008.4880191839
 20
6918.8249658831
 30
0.0
 11
8008.4880191839
 21
6914.1729425677
 31
0.0
  0
LINE
  5
4B9
330
1F
100
AcDbEntity
  8
0
  6
Continuous
 62
     7
 48
50.0
370
    25
100
AcDbLine
 10
10378.4880239523
 20
6918.8249658831
 30
0.0
 11
10378.4880239523
 21
6914.1729425677
 31
0.0
  0
LINE
  5
4BA
330
1F
100
AcDbEntity
  8
0
  6
Continuous
 62
     7
 48
50.0
370
    25
100
AcDbLine
 10
8008.4880191839
 20
6914.1729425677
 30
0.0
 11
8008.4880191839
 21
6875.201995302
 31
0.0
  0
LINE
  5
4BB
330
1F
100
AcDbEntity
  8
0
  6
Continuous
 62
     7
 48
50.0
370
    25
100
AcDbLine
 10
10378.4880239523
 20
6914.1729425677
 30
0.0
 11
10378.4880239523
 21
6875.201995302
 31
0.0
  0
LINE
  5
4BC
330
1F
100
AcDbEntity
  8
0
  6
Continuous
 62
     7
 48
50.0
370
    25
100
AcDbLine
 10
9203.0880350626
 20
6900.5783151873
 30
0.0
 11
9183.8880378759
 21
6900.5783151873
 31
0.0
  0
LINE
  5
4BD
330
1F
100
AcDbEntity
  8
0
  6
Continuous
 62
     7
 48
50.0
370
    25
100
AcDbLine
 10
9183.8880378759
 20
6888.7966226824
 30
0.0
 11
9203.0880350626
 21
6888.7966226824
 31
0.0
  0
LINE
  5
4BE
330
1F
100
AcDbEntity
  8
0
  6
Continuous
 62
     7
 48
50.0
370
    25
100
AcDbLine
 10
8008.4880191839
 20
6925.7972788103
 30
0.0
 11
8008.4880191839
 21
6918.8249658831
 31
0.0
  0
LINE
  5
4BF
330
1F
100
AcDbEntity
  8
0
  6
Continuous
 62
     7
 48
50.0
370
    25
100
AcDbLine
 10
8008.4880191839
 20
6925.7972788103
 30
0.0
 11
8044.0879661596
 21
6925.7972788103
 31
0.0
  0
LINE
  5
4C0
330
1F
100
AcDbEntity
  8
0
  6
Continuous
 62
     7
 48
50.0
370
    25
100
AcDbLine
 10
9183.8880378759
 20
6925.7972788103
 30
0.0
 11
9203.0880350626
 21
6925.7972788103
 31
0.0
  0
LINE
  5
4C1
330
1F
100
AcDbEntity
  8
0
  6
Continuous
 62
     7
 48
50.0
370
    25
100
AcDbLine
 10
10342.8880173719
 20
6925.7972788103
 30
0.0
 11
10378.4880239523
 21
6925.7972788103
 31
0.0
  0
LINE
  5
4C2
330
1F
100
AcDbEntity
  8
0
  6
Continuous
 62
     7
 48
50.0
370
    25
100
AcDbLine
 10
10378.4880239523
 20
6925.7972788103
 30
0.0
 11
10378.4880239523
 21
6918.8249658831
 31
0.0
  0
LINE
  5
4C3
330
1F
100
AcDbEntity
  8
0
  6
Continuous
 62
     7
 48
50.0
370
    25
100
AcDbLine
 10
9183.8880378759
 20
6889.4308161028
 30
0.0
 11
9203.0880350626
 21
6889.4308161028
 31
0.0
  0
LINE
  5
4C4
330
1F
100
AcDbEntity
  8
0
  6
Continuous
 62
     7
 48
50.0
370
    25
100
AcDbLine
 10
8008.4880191839
 20
6873.1811594256
 30
0.0
 11
8008.4880191839
 21
6875.201995302
 31
0.0
  0
LINE
  5
4C5
330
1F
100
AcDbEntity
  8
0
  6
Continuous
 62
     7
 48
50.0
370
    25
100
AcDbLine
 10
10378.4880239523
 20
6875.201995302
 30
0.0
 11
10378.4880239523
 21
6873.1811594256
 31
0.0
  0
LINE
  5
4C6
330
1F
100
AcDbEntity
  8
0
  6
Continuous
 62
     7
 48
50.0
370
    25
100
AcDbLine
 10
8008.4880191839
 20
6949.7955393084
 30
0.0
 11
8044.0879661596
 21
6949.7955393084
 31
0.0
  0
LINE
  5
4C7
330
1F
100
AcDbEntity
  8
0
  6
Continuous
 62
     7
 48
50.0
370
    25
100
AcDbLine
 10
9183.8880378759
 20
6949.7955393084
 30
0.0
 11
9203.0880350626
 21
6949.7955393084
 31
0.0
  0
LINE
  5
4C8
330
1F
100
AcDbEntity
  8
0
  6
Continuous
 62
     7
 48
50.0
370
    25
100
AcDbLine
 10
10342.8880173719
 20
6949.7955393084
 30
0.0
 11
10378.4880239523
 21
6949.7955393084
 31
0.0
  0
LINE
  5
4C9
330
1F
100
AcDbEntity
  8
0
  6
Continuous
 62
     7
 48
50.0
370
    25
100
AcDbLine
 10
8008.4880191839
 20
6949.7955393084
 30
0.0
 11
8008.4880191839
 21
6951.1545252093
 31
0.0
  0
LINE
  5
4CA
330
1F
100
AcDbEntity
  8
0
  6
Continuous
 62
     7
 48
50.0
370
    25
100
AcDbLine
 10
8008.4880191839
 20
6951.1545252093
 30
0.0
 11
8044.0879661596
 21
6951.1545252093
 31
0.0
  0
LINE
  5
4CB
330
1F
100
AcDbEntity
  8
0
  6
Continuous
 62
     7
 48
50.0
370
    25
100
AcDbLine
 10
9183.8880378759
 20
6951.1545252093
 30
0.0
 11
9203.0880350626
 21
6951.1545252093
 31
0.0
  0
LINE
  5
4CC
330
1F
100
AcDbEntity
  8
0
  6
Continuous
 62
     7
 48
50.0
370
    25
100
AcDbLine
 10
10342.8880173719
 20
6951.1545252093
 30
0.0
 11
10378.4880239523
 21
6951.1545252093
 31
0.0
  0
LINE
  5
4CD
330
1F
100
AcDbEntity
  8
0
  6
Continuous
 62
     7
 48
50.0
370
    25
100
AcDbLine
 10
10378.4880239523
 20
6949.7955393084
 30
0.0
 11
10378.4880239523
 21
6951.1545252093
 31
0.0
  0
LINE
  5
4CE
330
1F
100
AcDbEntity
  8
0
  6
Continuous
 62
     7
 48
50.0
370
    25
100
AcDbLine
 10
8008.4880191839
 20
6958.1277918108
 30
0.0
 11
8008.4880191839
 21
6951.1545252093
 31
0.0
  0
LINE
  5
4CF
330
1F
100
AcDbEntity
  8
0
  6
Continuous
 62
     7
 48
50.0
370
    25
100
AcDbLine
 10
10378.4880239523
 20
6958.1277918108
 30
0.0
 11
10378.4880239523
 21
6951.1545252093
 31
0.0
  0
LINE
  5
4D0
330
1F
100
AcDbEntity
  8
0
  6
Continuous
 62
     7
 48
50.0
370
    25
100
AcDbLine
 10
8008.4880191839
 20
6958.4558557757
 30
0.0
 11
8008.4880191839
 21
6958.1277918108
 31
0.0
  0
LINE
  5
4D1
330
1F
100
AcDbEntity
  8
0
  6
Continuous
 62
     7
 48
50.0
370
    25
100
AcDbLine
 10
10378.4880239523
 20
6958.4558557757
 30
0.0
 11
10378.4880239523
 21
6958.1277918108
 31
0.0
  0
LINE
  5
4D2
330
1F
100
AcDbEntity
  8
0
  6
Continuous
 62
     7
 48
50.0
370
    25
100
AcDbLine
 10
8008.4880191839
 20
6925.7972788103
 30
0.0
 11
8008.4880191839
 21
6949.7955393084
 31
0.0
  0
LINE
  5
4D3
330
1F
100
AcDbEntity
  8
0
  6
Continuous
 62
     7
 48
50.0
370
    25
100
AcDbLine
 10
10378.4880239523
 20
6925.7972788103
 30
0.0
 11
10378.4880239523
 21
6949.7955393084
 31
0.0
  0
LINE
  5
4D4
330
1F
100
AcDbEntity
  8
0
  6
Continuous
 62
     7
 48
50.0
370
    25
100
AcDbLine
 10
9203.0880350626
 20
6930.4245065935
 30
0.0
 11
9183.8880378759
 21
6930.4245065935
 31
0.0
  0
LINE
  5
4D5
330
1F
100
AcDbEntity
  8
0
  6
Continuous
 62
     7
 48
50.0
370
    25
100
AcDbLine
 10
9183.8880378759
 20
6942.2061990984
 30
0.0
 11
9203.0880350626
 21
6942.2061990984
 31
0.0
  0
LINE
  5
4D6
330
1F
100
AcDbEntity
  8
0
  6
Continuous
 62
     7
 48
50.0
370
    25
100
AcDbLine
 10
9203.0880350626
 20
6931.058700014
 30
0.0
 11
9183.8880378759
 21
6931.058700014
 31
0.0
  0
LINE
  5
4D7
330
1F
100
AcDbEntity
  8
0
  6
Continuous
 62
     7
 48
50.0
370
    25
100
AcDbLine
 10
8008.4880191839
 20
8839.2904352435
 30
0.0
 11
8008.4880191839
 21
8834.6393656023
 31
0.0
  0
LINE
  5
4D8
330
1F
100
AcDbEntity
  8
0
  6
Continuous
 62
     7
 48
50.0
370
    25
100
AcDbLine
 10
10378.4880239523
 20
8839.2904352435
 30
0.0
 11
10378.4880239523
 21
8834.6393656023
 31
0.0
  0
LINE
  5
4D9
330
1F
100
AcDbEntity
  8
0
  6
Continuous
 62
     7
 48
50.0
370
    25
100
AcDbLine
 10
8008.4880191839
 20
8834.6393656023
 30
0.0
 11
8008.4880191839
 21
8795.6684183367
 31
0.0
  0
LINE
  5
4DA
330
1F
100
AcDbEntity
  8
0
  6
Continuous
 62
     7
 48
50.0
370
    25
100
AcDbLine
 10
10378.4880239523
 20
8834.6393656023
 30
0.0
 11
10378.4880239523
 21
8795.6684183367
 31
0.0
  0
LINE
  5
4DB
330
1F
100
AcDbEntity
  8
0
  6
Continuous
 62
     7
 48
50.0
370
    25
100
AcDbLine
 10
9202.9880184686
 20
8821.044738222
 30
0.0
 11
9183.9880246675
 21
8821.044738222
 31
0.0
  0
LINE
  5
4DC
330
1F
100
AcDbEntity
  8
0
  6
Continuous
 62
     7
 48
50.0
370
    25
100
AcDbLine
 10
9183.9880246675
 20
8809.2630457171
 30
0.0
 11
9202.9880184686
 21
8809.2630457171
 31
0.0
  0
LINE
  5
4DD
330
1F
100
AcDbEntity
  8
0
  6
Continuous
 62
     7
 48
50.0
370
    25
100
AcDbLine
 10
8008.4880191839
 20
8846.263701845
 30
0.0
 11
8008.4880191839
 21
8839.2904352435
 31
0.0
  0
LINE
  5
4DE
330
1F
100
AcDbEntity
  8
0
  6
Continuous
 62
     7
 48
50.0
370
    25
100
AcDbLine
 10
8008.4880191839
 20
8846.263701845
 30
0.0
 11
8044.0879661596
 21
8846.263701845
 31
0.0
  0
LINE
  5
4DF
330
1F
100
AcDbEntity
  8
0
  6
Continuous
 62
     7
 48
50.0
370
    25
100
AcDbLine
 10
9183.8880378759
 20
8846.263701845
 30
0.0
 11
9203.0880350626
 21
8846.263701845
 31
0.0
  0
LINE
  5
4E0
330
1F
100
AcDbEntity
  8
0
  6
Continuous
 62
     7
 48
50.0
370
    25
100
AcDbLine
 10
10342.8880173719
 20
8846.263701845
 30
0.0
 11
10378.4880239523
 21
8846.263701845
 31
0.0
  0
LINE
  5
4E1
330
1F
100
AcDbEntity
  8
0
  6
Continuous
 62
     7
 48
50.0
370
    25
100
AcDbLine
 10
10378.4880239523
 20
8846.263701845
 30
0.0
 11
10378.4880239523
 21
8839.2904352435
 31
0.0
  0
LINE
  5
4E2
330
1F
100
AcDbEntity
  8
0
  6
Continuous
 62
     7
 48
50.0
370
    25
100
AcDbLine
 10
9183.9880246675
 20
8809.8972391375
 30
0.0
 11
9202.9880184686
 21
8809.8972391375
 31
0.0
  0
LINE
  5
4E3
330
1F
100
AcDbEntity
  8
0
  6
Continuous
 62
     7
 48
50.0
370
    25
100
AcDbLine
 10
8008.4880191839
 20
8793.6475824602
 30
0.0
 11
8008.4880191839
 21
8795.6684183367
 31
0.0
  0
LINE
  5
4E4
330
1F
100
AcDbEntity
  8
0
  6
Continuous
 62
     7
 48
50.0
370
    25
100
AcDbLine
 10
10378.4880239523
 20
8795.6684183367
 30
0.0
 11
10378.4880239523
 21
8793.6475824602
 31
0.0
  0
LINE
  5
4E5
330
1F
100
AcDbEntity
  8
0
  6
Continuous
 62
     7
 48
50.0
370
    25
100
AcDbLine
 10
8008.4880191839
 20
8871.6209482439
 30
0.0
 11
8044.0879661596
 21
8871.6209482439
 31
0.0
  0
LINE
  5
4E6
330
1F
100
AcDbEntity
  8
0
  6
Continuous
 62
     7
 48
50.0
370
    25
100
AcDbLine
 10
9183.8880378759
 20
8871.6209482439
 30
0.0
 11
9203.0880350626
 21
8871.6209482439
 31
0.0
  0
LINE
  5
4E7
330
1F
100
AcDbEntity
  8
0
  6
Continuous
 62
     7
 48
50.0
370
    25
100
AcDbLine
 10
10342.8880173719
 20
8871.6209482439
 30
0.0
 11
10378.4880239523
 21
8871.6209482439
 31
0.0
  0
LINE
  5
4E8
330
1F
100
AcDbEntity
  8
0
  6
Continuous
 62
     7
 48
50.0
370
    25
100
AcDbLine
 10
8008.4880191839
 20
8878.5942148455
 30
0.0
 11
8008.4880191839
 21
8871.6209482439
 31
0.0
  0
LINE
  5
4E9
330
1F
100
AcDbEntity
  8
0
  6
Continuous
 62
     7
 48
50.0
370
    25
100
AcDbLine
 10
10378.4880239523
 20
8878.5942148455
 30
0.0
 11
10378.4880239523
 21
8871.6209482439
 31
0.0
  0
LINE
  5
4EA
330
1F
100
AcDbEntity
  8
0
  6
Continuous
 62
     7
 48
50.0
370
    25
100
AcDbLine
 10
8008.4880191839
 20
8870.2619623431
 30
0.0
 11
8044.0879661596
 21
8870.2619623431
 31
0.0
  0
LINE
  5
4EB
330
1F
100
AcDbEntity
  8
0
  6
Continuous
 62
     7
 48
50.0
370
    25
100
AcDbLine
 10
9183.8880378759
 20
8870.2619623431
 30
0.0
 11
9203.0880350626
 21
8870.2619623431
 31
0.0
  0
LINE
  5
4EC
330
1F
100
AcDbEntity
  8
0
  6
Continuous
 62
     7
 48
50.0
370
    25
100
AcDbLine
 10
10342.8880173719
 20
8870.2619623431
 30
0.0
 11
10378.4880239523
 21
8870.2619623431
 31
0.0
  0
LINE
  5
4ED
330
1F
100
AcDbEntity
  8
0
  6
Continuous
 62
     7
 48
50.0
370
    25
100
AcDbLine
 10
8008.4880191839
 20
8870.2619623431
 30
0.0
 11
8008.4880191839
 21
8871.6209482439
 31
0.0
  0
LINE
  5
4EE
330
1F
100
AcDbEntity
  8
0
  6
Continuous
 62
     7
 48
50.0
370
    25
100
AcDbLine
 10
10378.4880239523
 20
8870.2619623431
 30
0.0
 11
10378.4880239523
 21
8871.6209482439
 31
0.0
  0
LINE
  5
4EF
330
1F
100
AcDbEntity
  8
0
  6
Continuous
 62
     7
 48
50.0
370
    25
100
AcDbLine
 10
8008.4880191839
 20
8878.9222788103
 30
0.0
 11
8008.4880191839
 21
8878.5942148455
 31
0.0
  0
LINE
  5
4F0
330
1F
100
AcDbEntity
  8
0
  6
Continuous
 62
     7
 48
50.0
370
    25
100
AcDbLine
 10
10378.4880239523
 20
8878.9222788103
 30
0.0
 11
10378.4880239523
 21
8878.5942148455
 31
0.0
  0
LINE
  5
4F1
330
1F
100
AcDbEntity
  8
0
  6
Continuous
 62
     7
 48
50.0
370
    25
100
AcDbLine
 10
8008.4880191839
 20
8846.263701845
 30
0.0
 11
8008.4880191839
 21
8870.2619623431
 31
0.0
  0
LINE
  5
4F2
330
1F
100
AcDbEntity
  8
0
  6
Continuous
 62
     7
 48
50.0
370
    25
100
AcDbLine
 10
10378.4880239523
 20
8846.263701845
 30
0.0
 11
10378.4880239523
 21
8870.2619623431
 31
0.0
  0
LINE
  5
4F3
330
1F
100
AcDbEntity
  8
0
  6
Continuous
 62
     7
 48
50.0
370
    25
100
AcDbLine
 10
9203.0880350626
 20
8850.8909296282
 30
0.0
 11
9183.8880378759
 21
8850.8909296282
 31
0.0
  0
LINE
  5
4F4
330
1F
100
AcDbEntity
  8
0
  6
Continuous
 62
     7
 48
50.0
370
    25
100
AcDbLine
 10
9183.8880378759
 20
8862.6726221331
 30
0.0
 11
9203.0880350626
 21
8862.6726221331
 31
0.0
  0
LINE
  5
4F5
330
1F
100
AcDbEntity
  8
0
  6
Continuous
 62
     7
 48
50.0
370
    25
100
AcDbLine
 10
9203.0880350626
 20
8851.5251230486
 30
0.0
 11
9183.8880378759
 21
8851.5251230486
 31
0.0
  0
LWPOLYLINE
  5
4F6
330
1F
100
AcDbEntity
  8
0
  6
Continuous
 62
     7
 48
50.0
370
    25
100
AcDbPolyline
 90
        3
 70
   128
 43
0.0
 10
10131.2812168157
 20
7270.8051752337
 10
10130.7929355657
 20
7270.9940027483
 10
10130.3853590047
 20
7271.1208414324
  0
LWPOLYLINE
  5
4F7
330
1F
100
AcDbEntity
  8
0
  6
Continuous
 62
     7
 48
50.0
370
    25
100
AcDbPolyline
 90
        3
 70
   128
 43
0.0
 10
10126.5906888998
 20
7271.1208414324
 10
10126.1831123388
 20
7270.9940027483
 10
10125.6948310888
 20
7270.8051752337
  0
LINE
  5
4F8
330
1F
100
AcDbEntity
  8
0
  6
Continuous
 62
     7
 48
50.0
370
    25
100
AcDbLine
 10
10098.4880525625
 20
7271.1208414324
 30
0.0
 11
10098.4880525625
 21
7270.8051752337
 31
0.0
  0
LINE
  5
4F9
330
1F
100
AcDbEntity
  8
0
  6
Continuous
 62
     7
 48
50.0
370
    25
100
AcDbLine
 10
10158.487995342
 20
7271.1208414324
 30
0.0
 11
10158.487995342
 21
7270.8051752337
 31
0.0
  0
LWPOLYLINE
  5
4FA
330
1F
100
AcDbEntity
  8
0
  6
Continuous
 62
     7
 48
50.0
370
    25
100
AcDbPolyline
 90
        3
 70
   128
 43
0.0
 10
8261.2812120473
 20
7270.8051752337
 10
8260.7929307973
 20
7270.9940027483
 10
8260.3853542364
 20
7271.1208414324
  0
LWPOLYLINE
  5
4FB
330
1F
100
AcDbEntity
  8
0
  6
Continuous
 62
     7
 48
50.0
370
    25
100
AcDbPolyline
 90
        3
 70
   128
 43
0.0
 10
8256.5906841314
 20
7271.1208414324
 10
8256.1831075704
 20
7270.9940027483
 10
8255.6948263204
 20
7270.8051752337
  0
LINE
  5
4FC
330
1F
100
AcDbEntity
  8
0
  6
Continuous
 62
     7
 48
50.0
370
    25
100
AcDbLine
 10
8228.4880477941
 20
7271.1208414324
 30
0.0
 11
8228.4880477941
 21
7270.8051752337
 31
0.0
  0
LINE
  5
4FD
330
1F
100
AcDbEntity
  8
0
  6
Continuous
 62
     7
 48
50.0
370
    25
100
AcDbLine
 10
8288.4879905736
 20
7271.1208414324
 30
0.0
 11
8288.4879905736
 21
7270.8051752337
 31
0.0
  0
LINE
  5
4FE
330
1F
100
AcDbEntity
  8
0
  6
Continuous
 62
     8
 48
50.0
370
    25
100
AcDbLine
 10
8008.4880191839
 20
7601.1541437395
 30
0.0
 11
8044.0879661596
 21
7601.1541437395
 31
0.0
  0
LINE
  5
4FF
330
1F
100
AcDbEntity
  8
0
  6
Continuous
 62
     8
 48
50.0
370
    25
100
AcDbLine
 10
9183.8880378759
 20
7601.1541437395
 30
0.0
 11
9203.0880350626
 21
7601.1541437395
 31
0.0
  0
LINE
  5
500
330
1F
100
AcDbEntity
  8
0
  6
Continuous
 62
     8
 48
50.0
370
    25
100
AcDbLine
 10
10342.8880173719
 20
7601.1541437395
 30
0.0
 11
10378.4880239523
 21
7601.1541437395
 31
0.0
  0
LINE
  5
501
330
1F
100
AcDbEntity
  8
0
  6
Continuous
 62
     8
 48
50.0
370
    25
100
AcDbLine
 10
8008.4880191839
 20
7605.806167055
 30
0.0
 11
8044.0879661596
 21
7605.806167055
 31
0.0
  0
LINE
  5
502
330
1F
100
AcDbEntity
  8
0
  6
Continuous
 62
     8
 48
50.0
370
    25
100
AcDbLine
 10
9183.8880378759
 20
7605.806167055
 30
0.0
 11
9203.0880350626
 21
7605.806167055
 31
0.0
  0
LINE
  5
503
330
1F
100
AcDbEntity
  8
0
  6
Continuous
 62
     8
 48
50.0
370
    25
100
AcDbLine
 10
10342.8880173719
 20
7605.806167055
 30
0.0
 11
10378.4880239523
 21
7605.806167055
 31
0.0
  0
LINE
  5
504
330
1F
100
AcDbEntity
  8
0
  6
Continuous
 62
     8
 48
50.0
370
    25
100
AcDbLine
 10
9183.8880378759
 20
7562.1831964739
 30
0.0
 11
9203.0880350626
 21
7562.1831964739
 31
0.0
  0
LINE
  5
505
330
1F
100
AcDbEntity
  8
0
  6
Continuous
 62
     8
 48
50.0
370
    25
100
AcDbLine
 10
8008.4880191839
 20
7562.1831964739
 30
0.0
 11
8044.0879661596
 21
7562.1831964739
 31
0.0
  0
LINE
  5
506
330
1F
100
AcDbEntity
  8
0
  6
Continuous
 62
     8
 48
50.0
370
    25
100
AcDbLine
 10
10342.8880173719
 20
7562.1831964739
 30
0.0
 11
10378.4880239523
 21
7562.1831964739
 31
0.0
  0
LINE
  5
507
330
1F
100
AcDbEntity
  8
0
  6
Continuous
 62
     8
 48
50.0
370
    25
100
AcDbLine
 10
8008.4880191839
 20
7645.1089929827
 30
0.0
 11
8044.0879661596
 21
7645.1089929827
 31
0.0
  0
LINE
  5
508
330
1F
100
AcDbEntity
  8
0
  6
Continuous
 62
     8
 48
50.0
370
    25
100
AcDbLine
 10
9183.8880378759
 20
7645.1089929827
 30
0.0
 11
9203.0880350626
 21
7645.1089929827
 31
0.0
  0
LINE
  5
509
330
1F
100
AcDbEntity
  8
0
  6
Continuous
 62
     8
 48
50.0
370
    25
100
AcDbLine
 10
10342.8880173719
 20
7645.1089929827
 30
0.0
 11
10378.4880239523
 21
7645.1089929827
 31
0.0
  0
LINE
  5
50A
330
1F
100
AcDbEntity
  8
0
  6
Continuous
 62
     8
 48
50.0
370
    25
100
AcDbLine
 10
8008.4880191839
 20
5680.6886743792
 30
0.0
 11
8044.0879661596
 21
5680.6886743792
 31
0.0
  0
LINE
  5
50B
330
1F
100
AcDbEntity
  8
0
  6
Continuous
 62
     8
 48
50.0
370
    25
100
AcDbLine
 10
9183.8880378759
 20
5680.6886743792
 30
0.0
 11
9203.0880350626
 21
5680.6886743792
 31
0.0
  0
LINE
  5
50C
330
1F
100
AcDbEntity
  8
0
  6
Continuous
 62
     8
 48
50.0
370
    25
100
AcDbLine
 10
10342.8880173719
 20
5680.6886743792
 30
0.0
 11
10378.4880239523
 21
5680.6886743792
 31
0.0
  0
LINE
  5
50D
330
1F
100
AcDbEntity
  8
0
  6
Continuous
 62
     8
 48
50.0
370
    25
100
AcDbLine
 10
8008.4880191839
 20
5685.3397440203
 30
0.0
 11
8044.0879661596
 21
5685.3397440203
 31
0.0
  0
LINE
  5
50E
330
1F
100
AcDbEntity
  8
0
  6
Continuous
 62
     8
 48
50.0
370
    25
100
AcDbLine
 10
9183.8880378759
 20
5685.3397440203
 30
0.0
 11
9203.0880350626
 21
5685.3397440203
 31
0.0
  0
LINE
  5
50F
330
1F
100
AcDbEntity
  8
0
  6
Continuous
 62
     8
 48
50.0
370
    25
100
AcDbLine
 10
10342.8880173719
 20
5685.3397440203
 30
0.0
 11
10378.4880239523
 21
5685.3397440203
 31
0.0
  0
LINE
  5
510
330
1F
100
AcDbEntity
  8
0
  6
Continuous
 62
     8
 48
50.0
370
    25
100
AcDbLine
 10
9183.8880378759
 20
5641.7167734393
 30
0.0
 11
9203.0880350626
 21
5641.7167734393
 31
0.0
  0
LINE
  5
511
330
1F
100
AcDbEntity
  8
0
  6
Continuous
 62
     8
 48
50.0
370
    25
100
AcDbLine
 10
8008.4880191839
 20
5641.7167734393
 30
0.0
 11
8044.0879661596
 21
5641.7167734393
 31
0.0
  0
LINE
  5
512
330
1F
100
AcDbEntity
  8
0
  6
Continuous
 62
     8
 48
50.0
370
    25
100
AcDbLine
 10
10342.8880173719
 20
5641.7167734393
 30
0.0
 11
10378.4880239523
 21
5641.7167734393
 31
0.0
  0
LINE
  5
513
330
1F
100
AcDbEntity
  8
0
  6
Continuous
 62
     8
 48
50.0
370
    25
100
AcDbLine
 10
8008.4880191839
 20
5724.6435236224
 30
0.0
 11
8043.9880687749
 21
5724.6435236224
 31
0.0
  0
LINE
  5
514
330
1F
100
AcDbEntity
  8
0
  6
Continuous
 62
     8
 48
50.0
370
    25
100
AcDbLine
 10
9183.9880246675
 20
5724.6435236224
 30
0.0
 11
9202.9880184686
 21
5724.6435236224
 31
0.0
  0
LINE
  5
515
330
1F
100
AcDbEntity
  8
0
  6
Continuous
 62
     8
 48
50.0
370
    25
100
AcDbLine
 10
10342.9880339658
 20
5724.6435236224
 30
0.0
 11
10378.4880239523
 21
5724.6435236224
 31
0.0
  0
LINE
  5
516
330
1F
100
AcDbEntity
  8
0
  6
Continuous
 62
     8
 48
50.0
370
    25
100
AcDbLine
 10
8008.4880191839
 20
6914.1729425677
 30
0.0
 11
8044.0879661596
 21
6914.1729425677
 31
0.0
  0
LINE
  5
517
330
1F
100
AcDbEntity
  8
0
  6
Continuous
 62
     8
 48
50.0
370
    25
100
AcDbLine
 10
9183.8880378759
 20
6914.1729425677
 30
0.0
 11
9203.0880350626
 21
6914.1729425677
 31
0.0
  0
LINE
  5
518
330
1F
100
AcDbEntity
  8
0
  6
Continuous
 62
     8
 48
50.0
370
    25
100
AcDbLine
 10
10342.8880173719
 20
6914.1729425677
 30
0.0
 11
10378.4880239523
 21
6914.1729425677
 31
0.0
  0
LINE
  5
519
330
1F
100
AcDbEntity
  8
0
  6
Continuous
 62
     8
 48
50.0
370
    25
100
AcDbLine
 10
8008.4880191839
 20
6918.8249658831
 30
0.0
 11
8044.0879661596
 21
6918.8249658831
 31
0.0
  0
LINE
  5
51A
330
1F
100
AcDbEntity
  8
0
  6
Continuous
 62
     8
 48
50.0
370
    25
100
AcDbLine
 10
9183.8880378759
 20
6918.8249658831
 30
0.0
 11
9203.0880350626
 21
6918.8249658831
 31
0.0
  0
LINE
  5
51B
330
1F
100
AcDbEntity
  8
0
  6
Continuous
 62
     8
 48
50.0
370
    25
100
AcDbLine
 10
10342.8880173719
 20
6918.8249658831
 30
0.0
 11
10378.4880239523
 21
6918.8249658831
 31
0.0
  0
LINE
  5
51C
330
1F
100
AcDbEntity
  8
0
  6
Continuous
 62
     8
 48
50.0
370
    25
100
AcDbLine
 10
9183.8880378759
 20
6875.201995302
 30
0.0
 11
9203.0880350626
 21
6875.201995302
 31
0.0
  0
LINE
  5
51D
330
1F
100
AcDbEntity
  8
0
  6
Continuous
 62
     8
 48
50.0
370
    25
100
AcDbLine
 10
8008.4880191839
 20
6875.201995302
 30
0.0
 11
8044.0879661596
 21
6875.201995302
 31
0.0
  0
LINE
  5
51E
330
1F
100
AcDbEntity
  8
0
  6
Continuous
 62
     8
 48
50.0
370
    25
100
AcDbLine
 10
10342.8880173719
 20
6875.201995302
 30
0.0
 11
10378.4880239523
 21
6875.201995302
 31
0.0
  0
LINE
  5
51F
330
1F
100
AcDbEntity
  8
0
  6
Continuous
 62
     8
 48
50.0
370
    25
100
AcDbLine
 10
8008.4880191839
 20
6958.1277918108
 30
0.0
 11
8044.0879661596
 21
6958.1277918108
 31
0.0
  0
LINE
  5
520
330
1F
100
AcDbEntity
  8
0
  6
Continuous
 62
     8
 48
50.0
370
    25
100
AcDbLine
 10
9183.8880378759
 20
6958.1277918108
 30
0.0
 11
9203.0880350626
 21
6958.1277918108
 31
0.0
  0
LINE
  5
521
330
1F
100
AcDbEntity
  8
0
  6
Continuous
 62
     8
 48
50.0
370
    25
100
AcDbLine
 10
10342.8880173719
 20
6958.1277918108
 30
0.0
 11
10378.4880239523
 21
6958.1277918108
 31
0.0
  0
LINE
  5
522
330
1F
100
AcDbEntity
  8
0
  6
Continuous
 62
     8
 48
50.0
370
    25
100
AcDbLine
 10
8008.4880191839
 20
8834.6393656023
 30
0.0
 11
8043.9880687749
 21
8834.6393656023
 31
0.0
  0
LINE
  5
523
330
1F
100
AcDbEntity
  8
0
  6
Continuous
 62
     8
 48
50.0
370
    25
100
AcDbLine
 10
9183.9880246675
 20
8834.6393656023
 30
0.0
 11
9202.9880184686
 21
8834.6393656023
 31
0.0
  0
LINE
  5
524
330
1F
100
AcDbEntity
  8
0
  6
Continuous
 62
     8
 48
50.0
370
    25
100
AcDbLine
 10
10342.9880339658
 20
8834.6393656023
 30
0.0
 11
10378.4880239523
 21
8834.6393656023
 31
0.0
  0
LINE
  5
525
330
1F
100
AcDbEntity
  8
0
  6
Continuous
 62
     8
 48
50.0
370
    25
100
AcDbLine
 10
8008.4880191839
 20
8839.2904352435
 30
0.0
 11
8044.0879661596
 21
8839.2904352435
 31
0.0
  0
LINE
  5
526
330
1F
100
AcDbEntity
  8
0
  6
Continuous
 62
     8
 48
50.0
370
    25
100
AcDbLine
 10
9183.8880378759
 20
8839.2904352435
 30
0.0
 11
9203.0880350626
 21
8839.2904352435
 31
0.0
  0
LINE
  5
527
330
1F
100
AcDbEntity
  8
0
  6
Continuous
 62
     8
 48
50.0
370
    25
100
AcDbLine
 10
10342.8880173719
 20
8839.2904352435
 30
0.0
 11
10378.4880239523
 21
8839.2904352435
 31
0.0
  0
LINE
  5
528
330
1F
100
AcDbEntity
  8
0
  6
Continuous
 62
     8
 48
50.0
370
    25
100
AcDbLine
 10
9183.9880246675
 20
8795.6684183367
 30
0.0
 11
9202.9880184686
 21
8795.6684183367
 31
0.0
  0
LINE
  5
529
330
1F
100
AcDbEntity
  8
0
  6
Continuous
 62
     8
 48
50.0
370
    25
100
AcDbLine
 10
8008.4880191839
 20
8795.6684183367
 30
0.0
 11
8043.9880687749
 21
8795.6684183367
 31
0.0
  0
LINE
  5
52A
330
1F
100
AcDbEntity
  8
0
  6
Continuous
 62
     8
 48
50.0
370
    25
100
AcDbLine
 10
10342.9880339658
 20
8795.6684183367
 30
0.0
 11
10378.4880239523
 21
8795.6684183367
 31
0.0
  0
LINE
  5
52B
330
1F
100
AcDbEntity
  8
0
  6
Continuous
 62
     8
 48
50.0
370
    25
100
AcDbLine
 10
8008.4880191839
 20
8878.5942148455
 30
0.0
 11
8044.0879661596
 21
8878.5942148455
 31
0.0
  0
LINE
  5
52C
330
1F
100
AcDbEntity
  8
0
  6
Continuous
 62
     8
 48
50.0
370
    25
100
AcDbLine
 10
9183.8880378759
 20
8878.5942148455
 30
0.0
 11
9203.0880350626
 21
8878.5942148455
 31
0.0
  0
LINE
  5
52D
330
1F
100
AcDbEntity
  8
0
  6
Continuous
 62
     8
 48
50.0
370
    25
100
AcDbLine
 10
10342.8880173719
 20
8878.5942148455
 30
0.0
 11
10378.4880239523
 21
8878.5942148455
 31
0.0
  0
LINE
  5
52E
330
1F
100
AcDbEntity
  8
0
  6
Continuous
 62
     8
 48
50.0
370
    25
100
AcDbLine
 10
10102.9880244291
 20
7271.1208414324
 30
0.0
 11
10102.9880244291
 21
7270.8051752337
 31
0.0
  0
LINE
  5
52F
330
1F
100
AcDbEntity
  8
0
  6
Continuous
 62
     8
 48
50.0
370
    25
100
AcDbLine
 10
10153.9880234754
 20
7271.1208414324
 30
0.0
 11
10153.9880234754
 21
7270.8051752337
 31
0.0
  0
LINE
  5
530
330
1F
100
AcDbEntity
  8
0
  6
Continuous
 62
     8
 48
50.0
370
    25
100
AcDbLine
 10
8232.9880792654
 20
7271.1208414324
 30
0.0
 11
8232.9880792654
 21
7270.8051752337
 31
0.0
  0
LINE
  5
531
330
1F
100
AcDbEntity
  8
0
  6
Continuous
 62
     8
 48
50.0
370
    25
100
AcDbLine
 10
8283.9880783117
 20
7271.1208414324
 30
0.0
 11
8283.9880783117
 21
7270.8051752337
 31
0.0
  0
DIMENSION
  5
532
330
1F
100
AcDbEntity
  8
0
  6
Continuous
 62
     7
 48
50.0
370
    18
100
AcDbDimension
  2
_D_11
 10
10378.4880239433
 20
9690.1468698512
 30
0.0
 11
8993.6525905256
 21
9690.1468698511
 31
0.0
 70
   160
  1
<>
 71
     2
 42
-1.0
  3
SLDDIMSTYLE1
100
AcDbAlignedDimension
 13
8008.4880239434
 23
8871.6210034059
 33
0.0
 14
10378.4880239434
 24
8871.621003406
 34
0.0
 50
0.0
100
AcDbRotatedDimension
  0
ENDSEC
  0
SECTION
  2
OBJECTS
  0
DICTIONARY
  5
C
330
0
100
AcDbDictionary
281
     1
  3
ACAD_GROUP
350
D
  3
ACAD_LAYOUT
350
1A
  3
ACAD_MLINESTYLE
350
17
  3
ACAD_PLOTSETTINGS
350
19
  3
ACAD_PLOTSTYLENAME
350
E
  3
ACAD_SCALELIST
350
47
  0
DICTIONARY
  5
D
102
{ACAD_REACTORS
330
C
102
}
330
C
100
AcDbDictionary
281
     1
  0
DICTIONARY
  5
1A
102
{ACAD_REACTORS
330
C
102
}
330
C
100
AcDbDictionary
281
     1
  3
Arkusz2
350
1E
  3
Model
350
22
  0
DICTIONARY
  5
17
102
{ACAD_REACTORS
330
C
102
}
330
C
100
AcDbDictionary
281
     1
  3
Standard
350
18
  0
DICTIONARY
  5
19
102
{ACAD_REACTORS
330
C
102
}
330
C
100
AcDbDictionary
281
     1
  0
ACDBDICTIONARYWDFLT
  5
E
102
{ACAD_REACTORS
330
C
102
}
330
C
100
AcDbDictionary
281
     1
  3
Normal
350
F
100
AcDbDictionaryWithDefault
340
F
  0
DICTIONARY
  5
47
102
{ACAD_REACTORS
330
C
102
}
330
C
100
AcDbDictionary
281
     1
  3
A0
350
48
  3
A1
350
49
  3
A2
350
4A
  3
A3
350
4B
  3
A4
350
4C
  3
A5
350
4D
  3
A6
350
4E
  3
A7
350
4F
  3
A8
350
50
  3
A9
350
51
  3
B0
350
52
  3
B1
350
53
  3
B2
350
54
  3
B3
350
55
  3
B4
350
56
  3
B5
350
57
  3
B6
350
58
  3
B7
350
59
  3
B8
350
5A
  3
B9
350
5B
  3
C0
350
5C
  3
C1
350
5D
  3
C2
350
5E
  3
C3
350
5F
  3
C4
350
60
  3
C5
350
61
  3
C6
350
62
  3
C7
350
63
  3
C8
350
64
  3
C9
350
65
  3
D0
350
66
  3
D1
350
67
  3
D2
350
68
  0
LAYOUT
  5
1E
102
{ACAD_REACTORS
330
1A
102
}
330
1A
100
AcDbPlotSettings
  1

  2
none_device
  4
ISO_A2_(594.00_x_420.00_MM)
  6

 40
7.5
 41
20.0
 42
7.5
 43
20.0
 44
594.0
 45
420.0
 46
0.0
 47
0.0
 48
0.0
 49
0.0
140
0.0
141
0.0
142
1.0
143
1.0
 70
  4832
 72
     1
 73
     0
 74
     1
  7

 75
     0
147
1.0
148
0.0
149
0.0
100
AcDbLayout
  1
Arkusz2
 70
     1
 71
     1
 10
0.0
 20
0.0
 11
29700.0
 21
21000.0
 12
0.0
 22
0.0
 32
0.0
 14
0.0
 24
0.0
 34
0.0
 15
29700.0
 25
21000.0
 35
0.0
146
0.0
 13
0.0
 23
0.0
 33
0.0
 16
1.0
 26
0.0
 36
0.0
 17
0.0
 27
1.0
 37
0.0
 76
     0
330
1B
  0
LAYOUT
  5
22
102
{ACAD_REACTORS
330
1A
102
}
330
1A
100
AcDbPlotSettings
  1

  2
none_device
  4
Letter_(8.50_x_11.00_Inches)
  6

 40
6.35
 41
6.35
 42
6.35000508
 43
6.35000508
 44
215.9
 45
279.4
 46
0.0
 47
0.0
 48
0.0
 49
0.0
140
0.0
141
0.0
142
1.0
143
1.0
 70
  1712
 72
     1
 73
     0
 74
     0
  7

 75
     0
147
1.0
148
0.0
149
0.0
100
AcDbLayout
  1
Model
 70
     1
 71
     0
 10
0.0
 20
0.0
 11
29700.0
 21
21000.0
 12
0.0
 22
0.0
 32
0.0
 14
0.0
 24
0.0
 34
0.0
 15
29700.0
 25
21000.0
 35
0.0
146
0.0
 13
0.0
 23
0.0
 33
0.0
 16
1.0
 26
0.0
 36
0.0
 17
0.0
 27
1.0
 37
0.0
 76
     0
330
1F
331
29
  0
MLINESTYLE
  5
18
102
{ACAD_REACTORS
330
17
102
}
330
17
100
AcDbMlineStyle
  2
Standard
 70
     0
  3

 62
   256
 51
90.0
 52
90.0
 71
     2
 49
0.5
 62
   256
  6
BYLAYER
 49
-0.5
 62
   256
  6
BYLAYER
  0
ACDBPLACEHOLDER
  5
F
102
{ACAD_REACTORS
330
E
102
}
330
E
  0
SCALE
  5
48
102
{ACAD_REACTORS
330
47
102
}
330
47
100
AcDbScale
 70
     0
300
1:1
140
1.0
141
1.0
290
     1
  0
SCALE
  5
49
102
{ACAD_REACTORS
330
47
102
}
330
47
100
AcDbScale
 70
     0
300
1:2
140
1.0
141
2.0
290
     0
  0
SCALE
  5
4A
102
{ACAD_REACTORS
330
47
102
}
330
47
100
AcDbScale
 70
     0
300
1:4
140
1.0
141
4.0
290
     0
  0
SCALE
  5
4B
102
{ACAD_REACTORS
330
47
102
}
330
47
100
AcDbScale
 70
     0
300
1:5
140
1.0
141
5.0
290
     0
  0
SCALE
  5
4C
102
{ACAD_REACTORS
330
47
102
}
330
47
100
AcDbScale
 70
     0
300
1:8
140
1.0
141
8.0
290
     0
  0
SCALE
  5
4D
102
{ACAD_REACTORS
330
47
102
}
330
47
100
AcDbScale
 70
     0
300
1:10
140
1.0
141
10.0
290
     0
  0
SCALE
  5
4E
102
{ACAD_REACTORS
330
47
102
}
330
47
100
AcDbScale
 70
     0
300
1:16
140
1.0
141
16.0
290
     0
  0
SCALE
  5
4F
102
{ACAD_REACTORS
330
47
102
}
330
47
100
AcDbScale
 70
     0
300
1:20
140
1.0
141
20.0
290
     0
  0
SCALE
  5
50
102
{ACAD_REACTORS
330
47
102
}
330
47
100
AcDbScale
 70
     0
300
1:30
140
1.0
141
30.0
290
     0
  0
SCALE
  5
51
102
{ACAD_REACTORS
330
47
102
}
330
47
100
AcDbScale
 70
     0
300
1:40
140
1.0
141
40.0
290
     0
  0
SCALE
  5
52
102
{ACAD_REACTORS
330
47
102
}
330
47
100
AcDbScale
 70
     0
300
1:50
140
1.0
141
50.0
290
     0
  0
SCALE
  5
53
102
{ACAD_REACTORS
330
47
102
}
330
47
100
AcDbScale
 70
     0
300
1:100
140
1.0
141
100.0
290
     0
  0
SCALE
  5
54
102
{ACAD_REACTORS
330
47
102
}
330
47
100
AcDbScale
 70
     0
300
2:1
140
2.0
141
1.0
290
     0
  0
SCALE
  5
55
102
{ACAD_REACTORS
330
47
102
}
330
47
100
AcDbScale
 70
     0
300
4:1
140
4.0
141
1.0
290
     0
  0
SCALE
  5
56
102
{ACAD_REACTORS
330
47
102
}
330
47
100
AcDbScale
 70
     0
300
8:1
140
8.0
141
1.0
290
     0
  0
SCALE
  5
57
102
{ACAD_REACTORS
330
47
102
}
330
47
100
AcDbScale
 70
     0
300
10:1
140
10.0
141
1.0
290
     0
  0
SCALE
  5
58
102
{ACAD_REACTORS
330
47
102
}
330
47
100
AcDbScale
 70
     0
300
100:1
140
100.0
141
1.0
290
     0
  0
SCALE
  5
59
102
{ACAD_REACTORS
330
47
102
}
330
47
100
AcDbScale
 70
     0
300
1/128" = 1'-0"
140
0.0078125
141
12.0
290
     0
  0
SCALE
  5
5A
102
{ACAD_REACTORS
330
47
102
}
330
47
100
AcDbScale
 70
     0
300
1/64" = 1'-0"
140
0.015625
141
12.0
290
     0
  0
SCALE
  5
5B
102
{ACAD_REACTORS
330
47
102
}
330
47
100
AcDbScale
 70
     0
300
1/32" = 1'-0"
140
0.03125
141
12.0
290
     0
  0
SCALE
  5
5C
102
{ACAD_REACTORS
330
47
102
}
330
47
100
AcDbScale
 70
     0
300
1/16" = 1'-0"
140
0.0625
141
12.0
290
     0
  0
SCALE
  5
5D
102
{ACAD_REACTORS
330
47
102
}
330
47
100
AcDbScale
 70
     0
300
3/32" = 1'-0"
140
0.09375
141
12.0
290
     0
  0
SCALE
  5
5E
102
{ACAD_REACTORS
330
47
102
}
330
47
100
AcDbScale
 70
     0
300
1/8" = 1'-0"
140
0.125
141
12.0
290
     0
  0
SCALE
  5
5F
102
{ACAD_REACTORS
330
47
102
}
330
47
100
AcDbScale
 70
     0
300
3/16" = 1'-0"
140
0.1875
141
12.0
290
     0
  0
SCALE
  5
60
102
{ACAD_REACTORS
330
47
102
}
330
47
100
AcDbScale
 70
     0
300
1/4" = 1'-0"
140
0.25
141
12.0
290
     0
  0
SCALE
  5
61
102
{ACAD_REACTORS
330
47
102
}
330
47
100
AcDbScale
 70
     0
300
3/8" = 1'-0"
140
0.375
141
12.0
290
     0
  0
SCALE
  5
62
102
{ACAD_REACTORS
330
47
102
}
330
47
100
AcDbScale
 70
     0
300
1/2" = 1'-0"
140
0.5
141
12.0
290
     0
  0
SCALE
  5
63
102
{ACAD_REACTORS
330
47
102
}
330
47
100
AcDbScale
 70
     0
300
3/4" = 1'-0"
140
0.75
141
12.0
290
     0
  0
SCALE
  5
64
102
{ACAD_REACTORS
330
47
102
}
330
47
100
AcDbScale
 70
     0
300
1" = 1'-0"
140
1.0
141
12.0
290
     0
  0
SCALE
  5
65
102
{ACAD_REACTORS
330
47
102
}
330
47
100
AcDbScale
 70
     0
300
1-1/2" = 1'-0"
140
1.5
141
12.0
290
     0
  0
SCALE
  5
66
102
{ACAD_REACTORS
330
47
102
}
330
47
100
AcDbScale
 70
     0
300
3" = 1'-0"
140
3.0
141
12.0
290
     0
  0
SCALE
  5
67
102
{ACAD_REACTORS
330
47
102
}
330
47
100
AcDbScale
 70
     0
300
6" = 1'-0"
140
6.0
141
12.0
290
     0
  0
SCALE
  5
68
102
{ACAD_REACTORS
330
47
102
}
330
47
100
AcDbScale
 70
     0
300
1'-0" = 1'-0"
140
12.0
141
12.0
290
     0
  0
ENDSEC
  0
EOF
